  0
SECTION
  2
HEADER
  9
$ACADVER
  1
AC1015
  9
$ACADMAINTVER
 70
           6
  9
$DWGCODEPAGE
  3
ANSI_1252
  9
$INSBASE
 10
0.0
 20
0.0
 30
0.0
  9
$EXTMIN
 10
-20.0
 20
-8.75
 30
-0.0
  9
$EXTMAX
 10
14.75
 20
14.75
 30
0.0
  9
$LIMMIN
 10
-5.0
 20
-28.25
  9
$LIMMAX
 10
16.4333
 20
-19.75
  9
$ORTHOMODE
 70
           0
  9
$REGENMODE
 70
           1
  9
$FILLMODE
 70
           1
  9
$QTEXTMODE
 70
           0
  9
$MIRRTEXT
 70
           1
  9
$LTSCALE
 40
1.0
  9
$ATTMODE
 70
           1
  9
$TEXTSIZE
 40
0.5
  9
$TRACEWID
 40
1.0
  9
$TEXTSTYLE
  7
STANDARD
  9
$CLAYER
  8
0
  9
$CELTYPE
  6
Continuous
  9
$CECOLOR
 62
           7
  9
$CELTSCALE
 40
1.0
  9
$DISPSILH
 70
           0
  9
$DIMSCALE
 40
1.0
  9
$DIMASZ
 40
0.25
  9
$DIMEXO
 40
0.0625
  9
$DIMDLI
 40
0.375
  9
$DIMRND
 40
0.01
  9
$DIMDLE
 40
0.0
  9
$DIMEXE
 40
0.125
  9
$DIMTP
 40
0.0
  9
$DIMTM
 40
0.0
  9
$DIMTXT
 40
0.15
  9
$DIMCEN
 40
0.09
  9
$DIMTSZ
 40
0.0
  9
$DIMTOL
 70
           0
  9
$DIMLIM
 70
           0
  9
$DIMTIH
 70
           1
  9
$DIMTOH
 70
           1
  9
$DIMSE1
 70
           0
  9
$DIMSE2
 70
           0
  9
$DIMTAD
 70
           1
  9
$DIMZIN
 70
           0
  9
$DIMBLK
  1

  9
$DIMASO
 70
           0
  9
$DIMSHO
 70
           1
  9
$DIMPOST
  1
<>in
  9
$DIMAPOST
  1

  9
$DIMALT
 70
           0
  9
$DIMALTD
 70
           2
  9
$DIMALTF
 40
1.0
  9
$DIMLFAC
 40
1.0
  9
$DIMTOFL
 70
           1
  9
$DIMTVP
 40
0.0
  9
$DIMTIX
 70
           0
  9
$DIMSOXD
 70
           0
  9
$DIMSAH
 70
           0
  9
$DIMBLK1
  1

  9
$DIMBLK2
  1

  9
$DIMSTYLE
  2
STANDARD
  9
$DIMCLRD
 70
           7
  9
$DIMCLRE
 70
           7
  9
$DIMCLRT
 70
           7
  9
$DIMTFAC
 40
1.0
  9
$DIMGAP
 40
0.0625
  9
$DIMJUST
 70
           0
  9
$DIMSD1
 70
           0
  9
$DIMSD2
 70
           0
  9
$DIMTOLJ
 70
           1
  9
$DIMTZIN
 70
           0
  9
$DIMALTZ
 70
           0
  9
$DIMALTTZ
 70
           0
  9
$DIMUPT
 70
           0
  9
$DIMDEC
 70
           2
  9
$DIMTDEC
 70
           2
  9
$DIMALTU
 70
           2
  9
$DIMALTTD
 70
           2
  9
$DIMTXSTY
  7
STANDARD
  9
$DIMAUNIT
 70
           0
  9
$DIMADEC
 70
           2
  9
$DIMALTRND
 40
0.0
  9
$DIMAZIN
 70
           0
  9
$DIMDSEP
 70
           0
  9
$DIMATFIT
 70
           0
  9
$DIMFRAC
 70
           0
  9
$DIMLDRBLK
  1

  9
$DIMLUNIT
 70
           2
  9
$DIMLWD
 70
           0
  9
$DIMLWE
 70
           0
  9
$DIMTMOVE
 70
           0
  9
$LUNITS
 70
           2
  9
$LUPREC
 70
           4
  9
$SKETCHINC
 40
1.0
  9
$FILLETRAD
 40
1.0
  9
$AUNITS
 70
           0
  9
$AUPREC
 70
           2
  9
$MENU
  1
acad
  9
$ELEVATION
 40
0.0
  9
$PELEVATION
 40
0.0
  9
$THICKNESS
 40
0.0
  9
$LIMCHECK
 70
           0
  9
$CHAMFERA
 40
0.0
  9
$CHAMFERB
 40
0.0
  9
$CHAMFERC
 40
0.0
  9
$CHAMFERD
 40
0.0
  9
$SKPOLY
 70
           0
  9
$TDCREATE
 40
0.000000000
  9
$TDUCREATE
 40
0.000000000
  9
$TDUPDATE
 40
2449702.667959363
  9
$TDUUPDATE
 40
0.000000000
  9
$TDINDWG
 40
0.0000000000
  9
$TDUSRTIMER
 40
0.0000000000
  9
$USRTIMER
 70
           1
  9
$ANGBASE
 50
0.0
  9
$ANGDIR
 70
           0
  9
$PDMODE
 70
           0
  9
$PDSIZE
 40
0.0
  9
$PLINEWID
 40
0.0
  9
$SPLFRAME
 70
           0
  9
$SPLINETYPE
 70
           5
  9
$SPLINESEGS
 70
          20
  9
$HANDSEED
  5
24E
  9
$SURFTAB1
 70
           6
  9
$SURFTAB2
 70
           6
  9
$SURFTYPE
 70
           6
  9
$SURFU
 70
           6
  9
$SURFV
 70
           6
  9
$UCSBASE
  2

  9
$UCSNAME
  2

  9
$UCSORG
 10
0.0
 20
0.0
 30
0.0
  9
$UCSXDIR
 10
1.0
 20
0.0
 30
0.0
  9
$UCSYDIR
 10
0.0
 20
1.0
 30
0.0
  9
$UCSORTHOREF
  2

  9
$UCSORTHOVIEW
 70
           0
  9
$UCSORGTOP
 10
0.0
 20
0.0
 30
0.0
  9
$UCSORGBOTTOM
 10
0.0
 20
0.0
 30
0.0
  9
$UCSORGLEFT
 10
0.0
 20
0.0
 30
0.0
  9
$UCSORGRIGHT
 10
0.0
 20
0.0
 30
0.0
  9
$UCSORGFRONT
 10
0.0
 20
0.0
 30
0.0
  9
$UCSORGBACK
 10
0.0
 20
0.0
 30
0.0
  9
$PUCSBASE
  2

  9
$PUCSNAME
  2

  9
$PUCSORG
 10
0.0
 20
0.0
 30
0.0
  9
$PUCSXDIR
 10
1.0
 20
0.0
 30
0.0
  9
$PUCSYDIR
 10
0.0
 20
1.0
 30
0.0
  9
$PUCSORTHOREF
  2

  9
$PUCSORTHOVIEW
 70
           0
  9
$PUCSORGTOP
 10
0.0
 20
0.0
 30
0.0
  9
$PUCSORGBOTTOM
 10
0.0
 20
0.0
 30
0.0
  9
$PUCSORGLEFT
 10
0.0
 20
0.0
 30
0.0
  9
$PUCSORGRIGHT
 10
0.0
 20
0.0
 30
0.0
  9
$PUCSORGFRONT
 10
0.0
 20
0.0
 30
0.0
  9
$PUCSORGBACK
 10
0.0
 20
0.0
 30
0.0
  9
$USERI1
 70
           0
  9
$USERI2
 70
           0
  9
$USERI3
 70
           0
  9
$USERI4
 70
           0
  9
$USERI5
 70
           0
  9
$USERR1
 40
0.0
  9
$USERR2
 40
0.0
  9
$USERR3
 40
0.0
  9
$USERR4
 40
0.0
  9
$USERR5
 40
0.0
  9
$WORLDVIEW
 70
           1
  9
$SHADEDGE
 70
           3
  9
$SHADEDIF
 70
          70
  9
$TILEMODE
 70
           1
  9
$MAXACTVP
 70
          16
  9
$PINSBASE
 10
0.0
 20
0.0
 30
0.0
  9
$PLIMCHECK
 70
           0
  9
$PEXTMIN
 10
0.0
 20
0.0
 30
0.0
  9
$PEXTMAX
 10
11.0
 20
8.5
 30
0.0
  9
$PLIMMIN
 10
0.0
 20
0.0
  9
$PLIMMAX
 10
11.0
 20
8.5
  9
$UNITMODE
 70
           0
  9
$VISRETAIN
 70
           0
  9
$PLINEGEN
 70
           1
  9
$PSLTSCALE
 70
           1
  9
$TREEDEPTH
 70
        3020
  9
$CMLSTYLE
  2
STANDARD
  9
$CMLJUST
 70
           0
  9
$CMLSCALE
 40
1.0
  9
$PROXYGRAPHICS
 70
           0
  9
$MEASUREMENT
 70
           0
  9
$CELWEIGHT
370
           0
  9
$ENDCAPS
280
           0
  9
$JOINSTYLE
280
           0
  9
$LWDISPLAY
290
           0
  9
$INSUNITS
 70
           0
  9
$HYPERLINKBASE
  1

  9
$STYLESHEET
  1

  9
$XEDIT
290
           1
  9
$CEPSNTYPE
380
           0
  9
$PSTYLEMODE
290
           1
  9
$FINGERPRINTGUID
  2

  9
$VERSIONGUID
  2

  9
$EXTNAMES
290
           1
  9
$PSVPSCALE
 40
0.0
  0
ENDSEC
  0
SECTION
  2
CLASSES
  0
CLASS
  1
LWPOLYLINE
  2
AcDbPolyline
  3
AutoCAD 2000
 90
        0
280
           0
281
           1
  0
CLASS
  1
IMAGE
  2
AcDbRasterImage
  3
ISM
 90
    32895
280
           0
281
           1
  0
CLASS
  1
OLE2FRAME
  2
AcDbOle2Frame
  3
AutoCAD 2000
 90
    32768
280
           0
281
           1
  0
CLASS
  1
HATCH
  2
AcDbHatch
  3
AutoCAD 2000
 90
        0
280
           0
281
           1
  0
CLASS
  1
DICTIONARYVAR
  2
AcDbDictionaryVar
  3
AutoCAD 2000
 90
    32768
280
           0
281
           0
  0
CLASS
  1
RASTERVARIABLES
  2
AcDbRasterVariables
  3
ISM
 90
    32768
280
           0
281
           0
  0
CLASS
  1
IMAGEDEF
  2
AcDbRasterImageDef
  3
ISM
 90
    32768
280
           0
281
           0
  0
CLASS
  1
IMAGEDEF_REACTOR
  2
AcDbRasterImageDefReactor
  3
ISM
 90
    32769
280
           0
281
           0
  0
CLASS
  1
IDBUFFER
  2
AcDbIdBuffer
  3
AutoCAD 2000
 90
    32768
280
           0
281
           0
  0
CLASS
  1
SPATIAL_FILTER
  2
AcDbSpatialFilter
  3
AutoCAD 2000
 90
    32768
280
           0
281
           0
  0
CLASS
  1
XRECORD
  2
AcDbXrecord
  3
AutoCAD 2000
 90
    32768
280
           0
281
           0
  0
CLASS
  1
SORTENTSTABLE
  2
AcDbSortentsTable
  3
AutoCAD 2000
 90
    32768
280
           0
281
           0
  0
CLASS
  1
LAYER_INDEX
  2
AcDbLayerIndex
  3
AutoCAD 2000
 90
    32768
280
           0
281
           0
  0
CLASS
  1
SPATIAL_INDEX
  2
AcDbSpatialIndex
  3
AutoCAD 2000
 90
    32768
280
           0
281
           0
  0
CLASS
  1
OBJECT_PTR
  2
CAseDLPNTableRecord
  3
"ASE-LPNTableRecord"
 90
    32769
280
           0
281
           0
  0
CLASS
  1
LAYOUT
  2
AcDbLayout
  3
AutoCAD 2000
 90
        0
280
           0
281
           0
  0
CLASS
  1
PLOTSETTINGS
  2
AcDbPlotSettings
  3
AutoCAD 2000
 90
    32768
280
           0
281
           0
  0
CLASS
  1
ACDBDICTIONARYWDFLT
  2
AcDbDictionaryWithDefault
  3
AutoCAD 2000
 90
        0
280
           0
281
           0
  0
CLASS
  1
ACDBPLACEHOLDER
  2
AcDbPlaceHolder
  3
AutoCAD 2000
 90
        0
280
           0
281
           0
  0
ENDSEC
  0
SECTION
  2
TABLES
  0
TABLE
  2
VPORT
  5
7
100
AcDbSymbolTable
 70
           1
  0
VPORT
  5
15
100
AcDbSymbolTableRecord
100
AcDbViewportTableRecord
  2
*ACTIVE
 70
           0
 10
0.0
 20
0.0
 11
1.0
 21
1.0
 12
0.0
 22
0.0
 13
0.0
 23
0.0
 14
0.5
 24
0.5
 15
0.5
 25
0.5
 16
0.0
 26
0.0
 36
1.0
 17
-2.625
 27
3.0
 37
0.0
 40
23.97
 41
1.841893252769
 42
50.0
 43
0.0
 44
0.0
 50
0.0
 51
0.0
 71
           0
 72
         100
 73
           1
 74
           1
 75
           0
 76
           0
 77
           0
 78
           0
281
           0
 65
           0
110
0.0
120
0.0
130
0.0
111
1.0
121
0.0
131
0.0
112
0.0
122
1.0
132
0.0
345
0
346
0
 79
           0
146
0.0
  0
ENDTAB
  0
TABLE
  2
LTYPE
  5
4
100
AcDbSymbolTable
 70
          15
  0
LTYPE
  5
11
100
AcDbSymbolTableRecord
100
AcDbLinetypeTableRecord
  2
ByBlock
 70
          64
  3

 72
          65
 73
           0
 40
0.0
  0
LTYPE
  5
12
100
AcDbSymbolTableRecord
100
AcDbLinetypeTableRecord
  2
ByLayer
 70
          64
  3

 72
          65
 73
           0
 40
0.0
  0
LTYPE
  5
13
100
AcDbSymbolTableRecord
100
AcDbLinetypeTableRecord
  2
Continuous
 70
          64
  3
Solid line
 72
          65
 73
           0
 40
0.0
  0
LTYPE
  5
24
100
AcDbSymbolTableRecord
100
AcDbLinetypeTableRecord
  2
BORDER
 70
           0
  3
BORDER
 72
          65
 73
           6
 40
1.75
 49
0.5
 74
           0
 49
-0.25
 74
           0
 49
0.5
 74
           0
 49
-0.25
 74
           0
 49
0.0
 74
           0
 49
-0.25
 74
           0
  0
LTYPE
  5
25
100
AcDbSymbolTableRecord
100
AcDbLinetypeTableRecord
  2
CENTER
 70
           0
  3
CENTER
 72
          65
 73
           4
 40
2.0
 49
1.25
 74
           0
 49
-0.25
 74
           0
 49
0.25
 74
           0
 49
-0.25
 74
           0
  0
LTYPE
  5
26
100
AcDbSymbolTableRecord
100
AcDbLinetypeTableRecord
  2
DASHDOT
 70
           0
  3
DASHDOT
 72
          65
 73
           4
 40
1.0
 49
0.5
 74
           0
 49
-0.25
 74
           0
 49
0.0
 74
           0
 49
-0.25
 74
           0
  0
LTYPE
  5
27
100
AcDbSymbolTableRecord
100
AcDbLinetypeTableRecord
  2
DASHED
 70
           0
  3
DASHED
 72
          65
 73
           2
 40
0.75
 49
0.5
 74
           0
 49
-0.25
 74
           0
  0
LTYPE
  5
28
100
AcDbSymbolTableRecord
100
AcDbLinetypeTableRecord
  2
DIVIDE
 70
           0
  3
DIVIDE
 72
          65
 73
           6
 40
1.25
 49
0.5
 74
           0
 49
-0.25
 74
           0
 49
0.0
 74
           0
 49
-0.25
 74
           0
 49
0.0
 74
           0
 49
-0.25
 74
           0
  0
LTYPE
  5
29
100
AcDbSymbolTableRecord
100
AcDbLinetypeTableRecord
  2
DOT
 70
           0
  3
DOT
 72
          65
 73
           2
 40
0.25
 49
0.0
 74
           0
 49
-0.25
 74
           0
  0
LTYPE
  5
2A
100
AcDbSymbolTableRecord
100
AcDbLinetypeTableRecord
  2
HIDDEN
 70
           0
  3
HIDDEN
 72
          65
 73
           2
 40
0.375
 49
0.25
 74
           0
 49
-0.125
 74
           0
  0
LTYPE
  5
2B
100
AcDbSymbolTableRecord
100
AcDbLinetypeTableRecord
  2
PHANTOM
 70
           0
  3
PHANTOM
 72
          65
 73
           6
 40
2.5
 49
1.25
 74
           0
 49
-0.25
 74
           0
 49
0.25
 74
           0
 49
-0.25
 74
           0
 49
0.25
 74
           0
 49
-0.25
 74
           0
  0
LTYPE
  5
2C
100
AcDbSymbolTableRecord
100
AcDbLinetypeTableRecord
  2
$INVISIBLE
 70
           0
  3
$INVISIBLE
 72
          65
 73
           2
 40
200.0
 49
-100.0
 74
           0
 49
-100.0
 74
           0
  0
LTYPE
  5
2D
100
AcDbSymbolTableRecord
100
AcDbLinetypeTableRecord
  2
$SNAPEXT
 70
           0
  3
$SNAPEXT
 72
          65
 73
           2
 40
0.04
 49
0.02
 74
           0
 49
-0.02
 74
           0
  0
LTYPE
  5
2E
100
AcDbSymbolTableRecord
100
AcDbLinetypeTableRecord
  2
$AUXILIARY
 70
           0
  3
$AUXILIARY
 72
          65
 73
           2
 40
0.1
 49
0.05
 74
           0
 49
-0.05
 74
           0
  0
LTYPE
  5
2F
100
AcDbSymbolTableRecord
100
AcDbLinetypeTableRecord
  2
$CONSTRUCTION
 70
           0
  3
$CONSTRUCTION
 72
          65
 73
           4
 40
0.3
 49
0.2
 74
           0
 49
-0.05
 74
           0
 49
0.0
 74
           0
 49
-0.05
 74
           0
  0
ENDTAB
  0
TABLE
  2
LAYER
  5
2
100
AcDbSymbolTable
 70
           6
  0
LAYER
  5
14
100
AcDbSymbolTableRecord
100
AcDbLayerTableRecord
  2
0
 70
           0
 62
           7
  6
Continuous
290
           1
370
           0
390
0
1001
TCAD
1000
TCW_LAYER_ORDER
1002
{
1071
        0
1002
}
  0
LAYER
  5
30
100
AcDbSymbolTableRecord
100
AcDbLayerTableRecord
  2
Exterior View
 70
           0
 62
           7
  6
Continuous
290
           1
370
           0
390
0
1001
TCAD
1000
TCW_LAYER_ORDER
1002
{
1071
        0
1002
}
  0
LAYER
  5
31
100
AcDbSymbolTableRecord
100
AcDbLayerTableRecord
  2
Hidden
 70
           0
 62
           7
  6
Continuous
290
           1
370
           0
390
0
1001
TCAD
1000
TCW_LAYER_ORDER
1002
{
1071
        0
1002
}
  0
LAYER
  5
32
100
AcDbSymbolTableRecord
100
AcDbLayerTableRecord
  2
$CONSTRUCTION
 70
           0
 62
          -9
  6
$CONSTRUCTION
290
           1
370
           0
390
0
1001
TCAD
1000
TCW_LAYER_ORDER
1002
{
1071
        0
1002
}
  0
LAYER
  5
33
100
AcDbSymbolTableRecord
100
AcDbLayerTableRecord
  2
Strings
 70
           0
 62
           7
  6
Continuous
290
           1
370
           0
390
0
1001
TCAD
1000
TCW_LAYER_ORDER
1002
{
1071
        0
1002
}
  0
LAYER
  5
34
100
AcDbSymbolTableRecord
100
AcDbLayerTableRecord
  2
Aux Views
 70
           0
 62
           7
  6
Continuous
290
           1
370
           0
390
0
1001
TCAD
1000
TCW_LAYER_ORDER
1002
{
1071
        0
1002
}
  0
ENDTAB
  0
TABLE
  2
STYLE
  5
3
100
AcDbSymbolTable
 70
           1
  0
STYLE
  5
17
100
AcDbSymbolTableRecord
100
AcDbTextStyleTableRecord
  2
STANDARD
 70
           0
 40
0.0
 41
1.0
 50
0.0
 71
           0
 42
0.300000011921
  3
TIMES.TTF
  4

1001
ACAD
1000
Times New Roman
1071
      290
  0
ENDTAB
  0
TABLE
  2
VIEW
  5
5
100
AcDbSymbolTable
 70
           1
  0
VIEW
  5
35
100
AcDbSymbolTableRecord
100
AcDbViewTableRecord
  2
View_0
 70
           0
 40
8.267716535433
 10
5.846456692913
 20
4.133858267717
 41
11.692913385827
 11
0.0
 21
0.0
 31
1.0
 12
0.0
 22
0.0
 32
0.0
 42
92.090489446729
 43
0.0
 44
0.0
 50
0.0
 71
           0
281
           0
 72
           0
110
0.0
120
0.0
130
0.0
111
1.0
121
0.0
131
0.0
112
0.0
122
1.0
132
0.0
  0
ENDTAB
  0
TABLE
  2
UCS
  5
6
100
AcDbSymbolTable
 70
           0
  0
ENDTAB
  0
TABLE
  2
APPID
  5
8
100
AcDbSymbolTable
 70
           2
  0
APPID
  5
16
100
AcDbSymbolTableRecord
100
AcDbRegAppTableRecord
  2
ACAD
 70
           0
  0
APPID
  5
23
100
AcDbSymbolTableRecord
100
AcDbRegAppTableRecord
  2
TCAD
 70
           0
  0
ENDTAB
  0
TABLE
  2
DIMSTYLE
  5
9
100
AcDbSymbolTable
 70
           1
100
AcDbDimStyleTable
 71
           0
  0
DIMSTYLE
105
18
100
AcDbSymbolTableRecord
100
AcDbDimStyleTableRecord
  2
STANDARD
 70
           0
  3
<>in
  4

 40
1.0
 41
0.25
 42
0.0625
 43
0.375
 44
0.125
 45
0.01
 46
0.0
 47
0.0
 48
0.0
 71
           0
 72
           0
 73
           1
 74
           1
 75
           0
 76
           0
 77
           1
 78
           0
 79
           0
140
0.15
141
0.09
142
0.0
143
1.0
144
1.0
145
0.0
146
1.0
147
0.0625
148
0.01
170
           0
171
           2
172
           1
173
           0
174
           0
175
           0
176
           7
177
           7
178
           7
179
           2
271
           2
272
           2
273
           2
274
           2
275
           0
276
           0
277
           2
278
          46
279
           0
280
           0
281
           0
282
           0
283
           1
284
           0
285
           0
286
           0
288
           0
340
17
341
0
342
0
343
0
344
0
371
          -2
372
          -2
  0
ENDTAB
  0
TABLE
  2
BLOCK_RECORD
  5
1
100
AcDbSymbolTable
 70
          12
  0
BLOCK_RECORD
  5
A
100
AcDbSymbolTableRecord
100
AcDbBlockTableRecord
  2
*MODEL_SPACE
340
24C
  0
BLOCK_RECORD
  5
B
100
AcDbSymbolTableRecord
100
AcDbBlockTableRecord
  2
*PAPER_SPACE
340
24D
  0
BLOCK_RECORD
  5
1AE
100
AcDbSymbolTableRecord
100
AcDbBlockTableRecord
  2
*D0
340
0
  0
BLOCK_RECORD
  5
1B9
100
AcDbSymbolTableRecord
100
AcDbBlockTableRecord
  2
*D1
340
0
  0
BLOCK_RECORD
  5
1C7
100
AcDbSymbolTableRecord
100
AcDbBlockTableRecord
  2
*D2
340
0
  0
BLOCK_RECORD
  5
1D4
100
AcDbSymbolTableRecord
100
AcDbBlockTableRecord
  2
*D3
340
0
  0
BLOCK_RECORD
  5
1E1
100
AcDbSymbolTableRecord
100
AcDbBlockTableRecord
  2
*D4
340
0
  0
BLOCK_RECORD
  5
1EE
100
AcDbSymbolTableRecord
100
AcDbBlockTableRecord
  2
*D5
340
0
  0
BLOCK_RECORD
  5
1FB
100
AcDbSymbolTableRecord
100
AcDbBlockTableRecord
  2
*D6
340
0
  0
BLOCK_RECORD
  5
208
100
AcDbSymbolTableRecord
100
AcDbBlockTableRecord
  2
*D7
340
0
  0
BLOCK_RECORD
  5
216
100
AcDbSymbolTableRecord
100
AcDbBlockTableRecord
  2
*D8
340
0
  0
BLOCK_RECORD
  5
223
100
AcDbSymbolTableRecord
100
AcDbBlockTableRecord
  2
*D9
340
0
  0
BLOCK_RECORD
  5
231
100
AcDbSymbolTableRecord
100
AcDbBlockTableRecord
  2
*D10
340
0
  0
BLOCK_RECORD
  5
23F
100
AcDbSymbolTableRecord
100
AcDbBlockTableRecord
  2
*D11
340
0
  0
ENDTAB
  0
ENDSEC
  0
SECTION
  2
BLOCKS
  0
BLOCK
  5
D
100
AcDbEntity
  8
0
100
AcDbBlockBegin
  2
*MODEL_SPACE
 70
           0
 10
0.0
 20
0.0
 30
0.0
  3
*MODEL_SPACE
  1

  0
ENDBLK
  5
E
100
AcDbEntity
  8
0
100
AcDbBlockEnd
  0
BLOCK
  5
F
100
AcDbEntity
 67
           1
  8
0
100
AcDbBlockBegin
  2
*PAPER_SPACE
 70
           0
 10
0.0
 20
0.0
 30
0.0
  3
*PAPER_SPACE
  1

  0
ENDBLK
  5
10
100
AcDbEntity
 67
           1
  8
0
100
AcDbBlockEnd
  0
BLOCK
  5
1AF
100
AcDbEntity
  8
0
100
AcDbBlockBegin
  2
*D0
 70
           1
 10
0.0
 20
0.0
 30
0.0
  3
*D0
  1

  0
MTEXT
  5
1B0
100
AcDbEntity
  8
0
  6
Continuous
 62
           7
100
AcDbMText
 10
13.7436948803
 20
0.326587296526
 30
0.0
 40
0.375
 41
0.0
 71
           5
 72
           1
  1
\A1;%%c5.00{}in
 73
           1
 44
1.0
1001
TCAD
1000
TCW_REFPOINT
1002
{
1010
13.7436948803
1020
0.326587296526
1030
0.0
1002
}
1000
TCW_ATTRIBUTE
1002
{
1000
<%%c5.00>
1002
}
  0
LWPOLYLINE
  5
1B1
100
AcDbEntity
  8
0
370
           0
  6
Continuous
 62
           7
100
AcDbPolyline
 90
        4
 70
           0
 10
7.28400974233
 20
-5.52849025767
 10
8.875
 20
-3.9375
 10
8.875
 20
-3.9375
 10
10.46599025767
 20
-2.34650974233
  0
LWPOLYLINE
  5
1B2
100
AcDbEntity
  8
0
370
           0
  6
Continuous
 62
           7
100
AcDbPolyline
 90
        4
 70
           0
 10
10.642766952966
 20
-2.169733047034
 40
0.0
 41
0.0
 10
10.819543648263
 20
-1.992956351737
 40
0.0
 41
0.0
 10
12.764087296526
 20
-0.048412703474
 40
0.0
 41
0.0
 10
14.660802464075
 20
-0.048412703474
 40
0.0
 41
0.0
  0
LWPOLYLINE
  5
1B4
102
{ACAD_REACTORS
330
1B3
102
}
100
AcDbEntity
  8
0
370
           0
  6
Continuous
 62
           7
100
AcDbPolyline
 90
        4
 70
           0
 10
7.107233047034
 20
-5.705266952966
 10
7.306990712719
 20
-5.551471228058
 10
7.261028771942
 20
-5.505509287281
 10
7.107233047034
 20
-5.705266952966
  0
HATCH
  5
1B3
100
AcDbEntity
  8
0
  6
Continuous
 62
           7
100
AcDbHatch
 10
0.0
 20
0.0
 30
0.0
210
0.0
220
0.0
230
1.0
  2
SOLID
 70
           1
 71
           1
 91
        1
 92
        3
 72
           0
 73
           1
 93
        3
 10
7.1072330470336311
 20
-5.7052669529663689
 10
7.3069907127188305
 20
-5.5514712280582943
 10
7.2610287719417048
 20
-5.5055092872811686
 97
        1
330
1B4
 75
           0
 76
           0
 98
        0
  0
LWPOLYLINE
  5
1B6
102
{ACAD_REACTORS
330
1B5
102
}
100
AcDbEntity
  8
0
370
           0
  6
Continuous
 62
           7
100
AcDbPolyline
 90
        4
 70
           0
 10
10.642766952966
 20
-2.169733047034
 10
10.443009287281
 20
-2.323528771942
 10
10.488971228058
 20
-2.369490712719
 10
10.642766952966
 20
-2.169733047034
  0
HATCH
  5
1B5
100
AcDbEntity
  8
0
  6
Continuous
 62
           7
100
AcDbHatch
 10
0.0
 20
0.0
 30
0.0
210
0.0
220
0.0
230
1.0
  2
SOLID
 70
           1
 71
           1
 91
        1
 92
        3
 72
           0
 73
           1
 93
        3
 10
10.642766952966369
 20
-2.1697330470336311
 10
10.44300928728117
 20
-2.3235287719417053
 10
10.488971228058295
 20
-2.3694907127188309
 97
        1
330
1B6
 75
           0
 76
           0
 98
        0
  0
ENDBLK
  5
1B7
100
AcDbEntity
  8
0
100
AcDbBlockEnd
  0
BLOCK
  5
1BA
100
AcDbEntity
  8
0
100
AcDbBlockBegin
  2
*D1
 70
           1
 10
0.0
 20
0.0
 30
0.0
  3
*D1
  1

  0
LINE
  5
1BB
100
AcDbEntity
  8
0
370
           0
  6
Continuous
 62
           7
100
AcDbLine
 10
2.9375
 20
-6.75
 30
0.0
 11
1.375
 21
-6.75
 31
0.0
1001
TCAD
1000
TCW_ATTRIBUTE
1002
{
1000
<1.00>
1002
}
  0
LWPOLYLINE
  5
1BC
100
AcDbEntity
  8
0
370
           0
  6
Continuous
 62
           7
100
AcDbPolyline
 90
        2
 70
           0
 10
1.8125
 20
-7.75
 10
1.375
 20
-7.75
1001
TCAD
1000
TCW_ATTRIBUTE
1002
{
1000
<1.00>
1002
}
  0
LWPOLYLINE
  5
1BD
100
AcDbEntity
  8
0
370
           0
  6
Continuous
 62
           7
100
AcDbPolyline
 90
        2
 70
           0
 10
1.5
 20
-6.25
 10
1.5
 20
-6.5
1001
TCAD
1000
TCW_ATTRIBUTE
1002
{
1000
<1.00>
1002
}
  0
LWPOLYLINE
  5
1BE
100
AcDbEntity
  8
0
370
           0
  6
Continuous
 62
           7
100
AcDbPolyline
 90
        2
 70
           0
 10
1.5
 20
-6.75
 40
0.0
 41
0.0
 10
1.5
 20
-7.75
 40
0.0
 41
0.0
1001
TCAD
1000
TCW_ATTRIBUTE
1002
{
1000
<1.00>
1002
}
  0
LWPOLYLINE
  5
1BF
100
AcDbEntity
  8
0
370
           0
  6
Continuous
 62
           7
100
AcDbPolyline
 90
        3
 70
           0
 10
3.239142416226
 20
-8.25
 10
1.5
 20
-8.25
 10
1.5
 20
-8.0
1001
TCAD
1000
TCW_ATTRIBUTE
1002
{
1000
<1.00>
1002
}
  0
LWPOLYLINE
  5
1C1
102
{ACAD_REACTORS
330
1C0
102
}
100
AcDbEntity
  8
0
370
           0
  6
Continuous
 62
           7
100
AcDbPolyline
 90
        4
 70
           0
 10
1.5
 20
-7.75
 10
1.4675
 20
-8.0
 10
1.5325
 20
-8.0
 10
1.5
 20
-7.75
1001
TCAD
1000
TCW_ATTRIBUTE
1002
{
1000
<1.00>
1002
}
  0
HATCH
  5
1C0
100
AcDbEntity
  8
0
  6
Continuous
 62
           7
100
AcDbHatch
 10
0.0
 20
0.0
 30
0.0
210
0.0
220
0.0
230
1.0
  2
SOLID
 70
           1
 71
           1
 91
        1
 92
        3
 72
           0
 73
           1
 93
        3
 10
1.5000000000000016
 20
-7.75
 10
1.467500000000002
 20
-8.0
 10
1.532500000000002
 20
-8.0
 97
        1
330
1C1
 75
           0
 76
           0
 98
        0
1001
TCAD
1000
TCW_ATTRIBUTE
1002
{
1000
<1.00>
1002
}
  0
LWPOLYLINE
  5
1C3
102
{ACAD_REACTORS
330
1C2
102
}
100
AcDbEntity
  8
0
370
           0
  6
Continuous
 62
           7
100
AcDbPolyline
 90
        4
 70
           0
 10
1.5
 20
-6.75
 10
1.5325
 20
-6.5
 10
1.4675
 20
-6.5
 10
1.5
 20
-6.75
1001
TCAD
1000
TCW_ATTRIBUTE
1002
{
1000
<1.00>
1002
}
  0
HATCH
  5
1C2
100
AcDbEntity
  8
0
  6
Continuous
 62
           7
100
AcDbHatch
 10
0.0
 20
0.0
 30
0.0
210
0.0
220
0.0
230
1.0
  2
SOLID
 70
           1
 71
           1
 91
        1
 92
        3
 72
           0
 73
           1
 93
        3
 10
1.4999999999999998
 20
-6.7499999999999991
 10
1.5324999999999993
 20
-6.4999999999999991
 10
1.4674999999999994
 20
-6.4999999999999991
 97
        1
330
1C3
 75
           0
 76
           0
 98
        0
1001
TCAD
1000
TCW_ATTRIBUTE
1002
{
1000
<1.00>
1002
}
  0
MTEXT
  5
1C4
100
AcDbEntity
  8
0
  6
Continuous
 62
           7
100
AcDbMText
 10
2.525821208113
 20
-7.875
 30
0.0
 40
0.375
 41
0.0
 71
           5
 72
           1
  1
\A1;1.00{}in
 73
           1
 44
1.0
1001
TCAD
1000
TCW_REFPOINT
1002
{
1010
2.525821208113
1020
-7.875
1030
0.0
1002
}
1000
TCW_ATTRIBUTE
1002
{
1000
<1.00>
1002
}
  0
ENDBLK
  5
1C5
100
AcDbEntity
  8
0
100
AcDbBlockEnd
  0
BLOCK
  5
1C8
100
AcDbEntity
  8
0
100
AcDbBlockBegin
  2
*D2
 70
           1
 10
0.0
 20
0.0
 30
0.0
  3
*D2
  1

  0
LINE
  5
1C9
100
AcDbEntity
  8
0
370
           0
  6
Continuous
 62
           7
100
AcDbLine
 10
6.6875
 20
-1.0
 30
0.0
 11
1.375
 21
-1.0
 31
0.0
1001
TCAD
1000
TCW_ATTRIBUTE
1002
{
1000
<5.75>
1002
}
  0
LINE
  5
1CA
100
AcDbEntity
  8
0
370
           0
  6
Continuous
 62
           7
100
AcDbLine
 10
2.9375
 20
-6.75
 30
0.0
 11
1.375
 21
-6.75
 31
0.0
1001
TCAD
1000
TCW_ATTRIBUTE
1002
{
1000
<5.75>
1002
}
  0
LWPOLYLINE
  5
1CB
100
AcDbEntity
  8
0
370
           0
  6
Continuous
 62
           7
100
AcDbPolyline
 90
        4
 70
           0
 10
1.5
 20
-1.25
 10
1.5
 20
-1.25
 10
1.5
 20
-1.25
 10
1.5
 20
-3.5
1001
TCAD
1000
TCW_ATTRIBUTE
1002
{
1000
<5.75>
1002
}
  0
LWPOLYLINE
  5
1CC
100
AcDbEntity
  8
0
370
           0
  6
Continuous
 62
           7
100
AcDbPolyline
 90
        4
 70
           0
 10
1.5
 20
-6.5
 10
1.5
 20
-6.5
 10
1.5
 20
-6.5
 10
1.5
 20
-4.25
1001
TCAD
1000
TCW_ATTRIBUTE
1002
{
1000
<5.75>
1002
}
  0
LWPOLYLINE
  5
1CE
102
{ACAD_REACTORS
330
1CD
102
}
100
AcDbEntity
  8
0
370
           0
  6
Continuous
 62
           7
100
AcDbPolyline
 90
        4
 70
           0
 10
1.5
 20
-1.0
 10
1.4675
 20
-1.25
 10
1.5325
 20
-1.25
 10
1.5
 20
-1.0
1001
TCAD
1000
TCW_ATTRIBUTE
1002
{
1000
<5.75>
1002
}
  0
HATCH
  5
1CD
100
AcDbEntity
  8
0
  6
Continuous
 62
           7
100
AcDbHatch
 10
0.0
 20
0.0
 30
0.0
210
0.0
220
0.0
230
1.0
  2
SOLID
 70
           1
 71
           1
 91
        1
 92
        3
 72
           0
 73
           1
 93
        3
 10
1.5
 20
-1.0
 10
1.4675
 20
-1.25
 10
1.5325
 20
-1.25
 97
        1
330
1CE
 75
           0
 76
           0
 98
        0
1001
TCAD
1000
TCW_ATTRIBUTE
1002
{
1000
<5.75>
1002
}
  0
LWPOLYLINE
  5
1D0
102
{ACAD_REACTORS
330
1CF
102
}
100
AcDbEntity
  8
0
370
           0
  6
Continuous
 62
           7
100
AcDbPolyline
 90
        4
 70
           0
 10
1.5
 20
-6.75
 10
1.5325
 20
-6.5
 10
1.4675
 20
-6.5
 10
1.5
 20
-6.75
1001
TCAD
1000
TCW_ATTRIBUTE
1002
{
1000
<5.75>
1002
}
  0
HATCH
  5
1CF
100
AcDbEntity
  8
0
  6
Continuous
 62
           7
100
AcDbHatch
 10
0.0
 20
0.0
 30
0.0
210
0.0
220
0.0
230
1.0
  2
SOLID
 70
           1
 71
           1
 91
        1
 92
        3
 72
           0
 73
           1
 93
        3
 10
1.5
 20
-6.7499999999999991
 10
1.5325
 20
-6.4999999999999991
 10
1.4675
 20
-6.4999999999999991
 97
        1
330
1D0
 75
           0
 76
           0
 98
        0
1001
TCAD
1000
TCW_ATTRIBUTE
1002
{
1000
<5.75>
1002
}
  0
MTEXT
  5
1D1
100
AcDbEntity
  8
0
  6
Continuous
 62
           7
100
AcDbMText
 10
1.5
 20
-3.875
 30
0.0
 40
0.375
 41
0.0
 71
           5
 72
           1
  1
\A1;5.75{}in
 73
           1
 44
1.0
1001
TCAD
1000
TCW_REFPOINT
1002
{
1010
1.5
1020
-3.875
1030
0.0
1002
}
1000
TCW_ATTRIBUTE
1002
{
1000
<5.75>
1002
}
  0
ENDBLK
  5
1D2
100
AcDbEntity
  8
0
100
AcDbBlockEnd
  0
BLOCK
  5
1D5
100
AcDbEntity
  8
0
100
AcDbBlockBegin
  2
*D3
 70
           1
 10
0.0
 20
0.0
 30
0.0
  3
*D3
  1

  0
LINE
  5
1D6
100
AcDbEntity
  8
0
370
           0
  6
Continuous
 62
           7
100
AcDbLine
 10
6.75
 20
-0.9375
 30
0.0
 11
6.75
 21
0.125
 31
0.0
1001
TCAD
1000
TCW_ATTRIBUTE
1002
{
1000
<4.25>
1002
}
  0
LINE
  5
1D7
100
AcDbEntity
  8
0
370
           0
  6
Continuous
 62
           7
100
AcDbLine
 10
11.0
 20
-0.9375
 30
0.0
 11
11.0
 21
0.125
 31
0.0
1001
TCAD
1000
TCW_ATTRIBUTE
1002
{
1000
<4.25>
1002
}
  0
LWPOLYLINE
  5
1D8
100
AcDbEntity
  8
0
370
           0
  6
Continuous
 62
           7
100
AcDbPolyline
 90
        4
 70
           0
 10
7.0
 20
0.0
 10
7.0
 20
0.0
 10
7.0
 20
0.0
 10
8.099178791887
 20
0.0
1001
TCAD
1000
TCW_ATTRIBUTE
1002
{
1000
<4.25>
1002
}
  0
LWPOLYLINE
  5
1D9
100
AcDbEntity
  8
0
370
           0
  6
Continuous
 62
           7
100
AcDbPolyline
 90
        4
 70
           0
 10
10.75
 20
0.0
 10
10.75
 20
0.0
 10
10.75
 20
0.0
 10
9.650821208113
 20
0.0
1001
TCAD
1000
TCW_ATTRIBUTE
1002
{
1000
<4.25>
1002
}
  0
LWPOLYLINE
  5
1DB
102
{ACAD_REACTORS
330
1DA
102
}
100
AcDbEntity
  8
0
370
           0
  6
Continuous
 62
           7
100
AcDbPolyline
 90
        4
 70
           0
 10
6.75
 20
0.0
 10
7.0
 20
-0.0325
 10
7.0
 20
0.0325
 10
6.75
 20
0.0
1001
TCAD
1000
TCW_ATTRIBUTE
1002
{
1000
<4.25>
1002
}
  0
HATCH
  5
1DA
100
AcDbEntity
  8
0
  6
Continuous
 62
           7
100
AcDbHatch
 10
0.0
 20
0.0
 30
0.0
210
0.0
220
0.0
230
1.0
  2
SOLID
 70
           1
 71
           1
 91
        1
 92
        3
 72
           0
 73
           1
 93
        3
 10
6.75
 20
0.0000000000000016
 10
7.0
 20
-0.0324999999999985
 10
7.0
 20
0.0325000000000015
 97
        1
330
1DB
 75
           0
 76
           0
 98
        0
1001
TCAD
1000
TCW_ATTRIBUTE
1002
{
1000
<4.25>
1002
}
  0
LWPOLYLINE
  5
1DD
102
{ACAD_REACTORS
330
1DC
102
}
100
AcDbEntity
  8
0
370
           0
  6
Continuous
 62
           7
100
AcDbPolyline
 90
        4
 70
           0
 10
11.0
 20
-0.0
 10
10.75
 20
0.0325
 10
10.75
 20
-0.0325
 10
11.0
 20
-0.0
1001
TCAD
1000
TCW_ATTRIBUTE
1002
{
1000
<4.25>
1002
}
  0
HATCH
  5
1DC
100
AcDbEntity
  8
0
  6
Continuous
 62
           7
100
AcDbHatch
 10
0.0
 20
0.0
 30
0.0
210
0.0
220
0.0
230
1.0
  2
SOLID
 70
           1
 71
           1
 91
        1
 92
        3
 72
           0
 73
           1
 93
        3
 10
10.999999999999998
 20
-0.0000000000000001
 10
10.749999999999998
 20
0.0325
 10
10.749999999999998
 20
-0.0325
 97
        1
330
1DD
 75
           0
 76
           0
 98
        0
1001
TCAD
1000
TCW_ATTRIBUTE
1002
{
1000
<4.25>
1002
}
  0
MTEXT
  5
1DE
100
AcDbEntity
  8
0
  6
Continuous
 62
           7
100
AcDbMText
 10
8.875
 20
0.0
 30
0.0
 40
0.375
 41
0.0
 71
           5
 72
           1
  1
\A1;4.25{}in
 73
           1
 44
1.0
1001
TCAD
1000
TCW_REFPOINT
1002
{
1010
8.875
1020
0.0
1030
0.0
1002
}
1000
TCW_ATTRIBUTE
1002
{
1000
<4.25>
1002
}
  0
ENDBLK
  5
1DF
100
AcDbEntity
  8
0
100
AcDbBlockEnd
  0
BLOCK
  5
1E2
100
AcDbEntity
  8
0
100
AcDbBlockBegin
  2
*D4
 70
           1
 10
0.0
 20
0.0
 30
0.0
  3
*D4
  1

  0
LINE
  5
1E3
100
AcDbEntity
  8
0
370
           0
  6
Continuous
 62
           7
100
AcDbLine
 10
6.25
 20
-6.5625
 30
0.0
 11
6.25
 21
1.125
 31
0.0
1001
TCAD
1000
TCW_ATTRIBUTE
1002
{
1000
<5.25>
1002
}
  0
LINE
  5
1E4
100
AcDbEntity
  8
0
370
           0
  6
Continuous
 62
           7
100
AcDbLine
 10
11.5
 20
-6.5625
 30
0.0
 11
11.5
 21
1.125
 31
0.0
1001
TCAD
1000
TCW_ATTRIBUTE
1002
{
1000
<5.25>
1002
}
  0
LWPOLYLINE
  5
1E5
100
AcDbEntity
  8
0
370
           0
  6
Continuous
 62
           7
100
AcDbPolyline
 90
        4
 70
           0
 10
6.5
 20
1.0
 10
6.5
 20
1.0
 10
6.5
 20
1.0
 10
8.875
 20
1.0
1001
TCAD
1000
TCW_ATTRIBUTE
1002
{
1000
<5.25>
1002
}
  0
LWPOLYLINE
  5
1E6
100
AcDbEntity
  8
0
370
           0
  6
Continuous
 62
           7
100
AcDbPolyline
 90
        4
 70
           0
 10
11.25
 20
1.0
 10
11.25
 20
1.0
 10
11.25
 20
1.0
 10
8.875
 20
1.0
1001
TCAD
1000
TCW_ATTRIBUTE
1002
{
1000
<5.25>
1002
}
  0
LWPOLYLINE
  5
1E8
102
{ACAD_REACTORS
330
1E7
102
}
100
AcDbEntity
  8
0
370
           0
  6
Continuous
 62
           7
100
AcDbPolyline
 90
        4
 70
           0
 10
6.25
 20
1.0
 10
6.5
 20
0.9675
 10
6.5
 20
1.0325
 10
6.25
 20
1.0
1001
TCAD
1000
TCW_ATTRIBUTE
1002
{
1000
<5.25>
1002
}
  0
HATCH
  5
1E7
100
AcDbEntity
  8
0
  6
Continuous
 62
           7
100
AcDbHatch
 10
0.0
 20
0.0
 30
0.0
210
0.0
220
0.0
230
1.0
  2
SOLID
 70
           1
 71
           1
 91
        1
 92
        3
 72
           0
 73
           1
 93
        3
 10
6.2499999999999991
 20
0.9999999999999982
 10
6.4999999999999991
 20
0.9674999999999984
 10
6.4999999999999991
 20
1.0324999999999984
 97
        1
330
1E8
 75
           0
 76
           0
 98
        0
1001
TCAD
1000
TCW_ATTRIBUTE
1002
{
1000
<5.25>
1002
}
  0
LWPOLYLINE
  5
1EA
102
{ACAD_REACTORS
330
1E9
102
}
100
AcDbEntity
  8
0
370
           0
  6
Continuous
 62
           7
100
AcDbPolyline
 90
        4
 70
           0
 10
11.5
 20
1.0
 10
11.25
 20
1.0325
 10
11.25
 20
0.9675
 10
11.5
 20
1.0
1001
TCAD
1000
TCW_ATTRIBUTE
1002
{
1000
<5.25>
1002
}
  0
HATCH
  5
1E9
100
AcDbEntity
  8
0
  6
Continuous
 62
           7
100
AcDbHatch
 10
0.0
 20
0.0
 30
0.0
210
0.0
220
0.0
230
1.0
  2
SOLID
 70
           1
 71
           1
 91
        1
 92
        3
 72
           0
 73
           1
 93
        3
 10
11.5
 20
1.0
 10
11.25
 20
1.0325
 10
11.25
 20
0.9674999999999999
 97
        1
330
1EA
 75
           0
 76
           0
 98
        0
1001
TCAD
1000
TCW_ATTRIBUTE
1002
{
1000
<5.25>
1002
}
  0
MTEXT
  5
1EB
100
AcDbEntity
  8
0
  6
Continuous
 62
           7
100
AcDbMText
 10
8.875
 20
1.375
 30
0.0
 40
0.375
 41
0.0
 71
           5
 72
           1
  1
\A1;5.25{}in
 73
           1
 44
1.0
1001
TCAD
1000
TCW_REFPOINT
1002
{
1010
8.875
1020
1.375
1030
0.0
1002
}
1000
TCW_ATTRIBUTE
1002
{
1000
<5.25>
1002
}
  0
ENDBLK
  5
1EC
100
AcDbEntity
  8
0
100
AcDbBlockEnd
  0
BLOCK
  5
1EF
100
AcDbEntity
  8
0
100
AcDbBlockBegin
  2
*D5
 70
           1
 10
0.0
 20
0.0
 30
0.0
  3
*D5
  1

  0
LINE
  5
1F0
100
AcDbEntity
  8
0
370
           0
  6
Continuous
 62
           7
100
AcDbLine
 10
-0.0
 20
2.9375
 30
0.0
 11
0.0
 21
0.875
 31
0.0
1001
TCAD
1000
TCW_ATTRIBUTE
1002
{
1000
<20.00>
1002
}
  0
LINE
  5
1F1
100
AcDbEntity
  8
0
370
           0
  6
Continuous
 62
           7
100
AcDbLine
 10
-20.0
 20
2.9375
 30
0.0
 11
-20.0
 21
0.875
 31
0.0
1001
TCAD
1000
TCW_ATTRIBUTE
1002
{
1000
<20.00>
1002
}
  0
LWPOLYLINE
  5
1F2
100
AcDbEntity
  8
0
370
           0
  6
Continuous
 62
           7
100
AcDbPolyline
 90
        4
 70
           0
 10
-0.25
 20
1.0
 10
-0.25
 20
1.0
 10
-0.25
 20
1.0
 10
-10.0
 20
1.0
1001
TCAD
1000
TCW_ATTRIBUTE
1002
{
1000
<20.00>
1002
}
  0
LWPOLYLINE
  5
1F3
100
AcDbEntity
  8
0
370
           0
  6
Continuous
 62
           7
100
AcDbPolyline
 90
        4
 70
           0
 10
-19.75
 20
1.0
 10
-19.75
 20
1.0
 10
-19.75
 20
1.0
 10
-10.0
 20
1.0
1001
TCAD
1000
TCW_ATTRIBUTE
1002
{
1000
<20.00>
1002
}
  0
LWPOLYLINE
  5
1F5
102
{ACAD_REACTORS
330
1F4
102
}
100
AcDbEntity
  8
0
370
           0
  6
Continuous
 62
           7
100
AcDbPolyline
 90
        4
 70
           0
 10
0.0
 20
1.0
 10
-0.25
 20
1.0325
 10
-0.25
 20
0.9675
 10
0.0
 20
1.0
1001
TCAD
1000
TCW_ATTRIBUTE
1002
{
1000
<20.00>
1002
}
  0
HATCH
  5
1F4
100
AcDbEntity
  8
0
  6
Continuous
 62
           7
100
AcDbHatch
 10
0.0
 20
0.0
 30
0.0
210
0.0
220
0.0
230
1.0
  2
SOLID
 70
           1
 71
           1
 91
        1
 92
        3
 72
           0
 73
           1
 93
        3
 10
0.0
 20
0.9999999999999973
 10
-0.25
 20
1.0324999999999973
 10
-0.25
 20
0.9674999999999974
 97
        1
330
1F5
 75
           0
 76
           0
 98
        0
1001
TCAD
1000
TCW_ATTRIBUTE
1002
{
1000
<20.00>
1002
}
  0
LWPOLYLINE
  5
1F7
102
{ACAD_REACTORS
330
1F6
102
}
100
AcDbEntity
  8
0
370
           0
  6
Continuous
 62
           7
100
AcDbPolyline
 90
        4
 70
           0
 10
-20.0
 20
1.0
 10
-19.75
 20
0.9675
 10
-19.75
 20
1.0325
 10
-20.0
 20
1.0
1001
TCAD
1000
TCW_ATTRIBUTE
1002
{
1000
<20.00>
1002
}
  0
HATCH
  5
1F6
100
AcDbEntity
  8
0
  6
Continuous
 62
           7
100
AcDbHatch
 10
0.0
 20
0.0
 30
0.0
210
0.0
220
0.0
230
1.0
  2
SOLID
 70
           1
 71
           1
 91
        1
 92
        3
 72
           0
 73
           1
 93
        3
 10
-20.0
 20
1.0
 10
-19.75
 20
0.9675
 10
-19.75
 20
1.0325
 97
        1
330
1F7
 75
           0
 76
           0
 98
        0
1001
TCAD
1000
TCW_ATTRIBUTE
1002
{
1000
<20.00>
1002
}
  0
MTEXT
  5
1F8
100
AcDbEntity
  8
0
  6
Continuous
 62
           7
100
AcDbMText
 10
-10.0
 20
1.375
 30
0.0
 40
0.375
 41
0.0
 71
           5
 72
           1
  1
\A1;20.00{}in
 73
           1
 44
1.0
1001
TCAD
1000
TCW_REFPOINT
1002
{
1010
-10.0
1020
1.375
1030
0.0
1002
}
1000
TCW_ATTRIBUTE
1002
{
1000
<20.00>
1002
}
  0
ENDBLK
  5
1F9
100
AcDbEntity
  8
0
100
AcDbBlockEnd
  0
BLOCK
  5
1FC
100
AcDbEntity
  8
0
100
AcDbBlockBegin
  2
*D6
 70
           1
 10
0.0
 20
0.0
 30
0.0
  3
*D6
  1

  0
LINE
  5
1FD
100
AcDbEntity
  8
0
370
           0
  6
Continuous
 62
           7
100
AcDbLine
 10
-5.75
 20
6.1875
 30
0.0
 11
-5.75
 21
1.375
 31
0.0
1001
TCAD
1000
TCW_ATTRIBUTE
1002
{
1000
<2.75>
1002
}
  0
LINE
  5
1FE
100
AcDbEntity
  8
0
370
           0
  6
Continuous
 62
           7
100
AcDbLine
 10
-3.0
 20
6.1875
 30
0.0
 11
-3.0
 21
1.375
 31
0.0
1001
TCAD
1000
TCW_ATTRIBUTE
1002
{
1000
<2.75>
1002
}
  0
LWPOLYLINE
  5
1FF
100
AcDbEntity
  8
0
370
           0
  6
Continuous
 62
           7
100
AcDbPolyline
 90
        4
 70
           0
 10
-5.5
 20
1.5
 10
-5.5
 20
1.5
 10
-5.5
 20
1.5
 10
-4.375
 20
1.5
1001
TCAD
1000
TCW_ATTRIBUTE
1002
{
1000
<2.75>
1002
}
  0
LWPOLYLINE
  5
200
100
AcDbEntity
  8
0
370
           0
  6
Continuous
 62
           7
100
AcDbPolyline
 90
        4
 70
           0
 10
-3.25
 20
1.5
 10
-3.25
 20
1.5
 10
-3.25
 20
1.5
 10
-4.375
 20
1.5
1001
TCAD
1000
TCW_ATTRIBUTE
1002
{
1000
<2.75>
1002
}
  0
LWPOLYLINE
  5
202
102
{ACAD_REACTORS
330
201
102
}
100
AcDbEntity
  8
0
370
           0
  6
Continuous
 62
           7
100
AcDbPolyline
 90
        4
 70
           0
 10
-5.75
 20
1.5
 10
-5.5
 20
1.4675
 10
-5.5
 20
1.5325
 10
-5.75
 20
1.5
1001
TCAD
1000
TCW_ATTRIBUTE
1002
{
1000
<2.75>
1002
}
  0
HATCH
  5
201
100
AcDbEntity
  8
0
  6
Continuous
 62
           7
100
AcDbHatch
 10
0.0
 20
0.0
 30
0.0
210
0.0
220
0.0
230
1.0
  2
SOLID
 70
           1
 71
           1
 91
        1
 92
        3
 72
           0
 73
           1
 93
        3
 10
-5.7499999999999991
 20
1.5
 10
-5.4999999999999991
 20
1.4675
 10
-5.4999999999999991
 20
1.5325
 97
        1
330
202
 75
           0
 76
           0
 98
        0
1001
TCAD
1000
TCW_ATTRIBUTE
1002
{
1000
<2.75>
1002
}
  0
LWPOLYLINE
  5
204
102
{ACAD_REACTORS
330
203
102
}
100
AcDbEntity
  8
0
370
           0
  6
Continuous
 62
           7
100
AcDbPolyline
 90
        4
 70
           0
 10
-3.0
 20
1.5
 10
-3.25
 20
1.5325
 10
-3.25
 20
1.4675
 10
-3.0
 20
1.5
1001
TCAD
1000
TCW_ATTRIBUTE
1002
{
1000
<2.75>
1002
}
  0
HATCH
  5
203
100
AcDbEntity
  8
0
  6
Continuous
 62
           7
100
AcDbHatch
 10
0.0
 20
0.0
 30
0.0
210
0.0
220
0.0
230
1.0
  2
SOLID
 70
           1
 71
           1
 91
        1
 92
        3
 72
           0
 73
           1
 93
        3
 10
-2.9999999999999991
 20
1.4999999999999991
 10
-3.2499999999999991
 20
1.5324999999999991
 10
-3.2499999999999991
 20
1.4674999999999991
 97
        1
330
204
 75
           0
 76
           0
 98
        0
1001
TCAD
1000
TCW_ATTRIBUTE
1002
{
1000
<2.75>
1002
}
  0
MTEXT
  5
205
100
AcDbEntity
  8
0
  6
Continuous
 62
           7
100
AcDbMText
 10
-4.375
 20
1.875
 30
0.0
 40
0.375
 41
0.0
 71
           5
 72
           1
  1
\A1;2.75{}in
 73
           1
 44
1.0
1001
TCAD
1000
TCW_REFPOINT
1002
{
1010
-4.375
1020
1.875
1030
0.0
1002
}
1000
TCW_ATTRIBUTE
1002
{
1000
<2.75>
1002
}
  0
ENDBLK
  5
206
100
AcDbEntity
  8
0
100
AcDbBlockEnd
  0
BLOCK
  5
209
100
AcDbEntity
  8
0
100
AcDbBlockBegin
  2
*D7
 70
           1
 10
0.0
 20
0.0
 30
0.0
  3
*D7
  1

  0
LINE
  5
20A
100
AcDbEntity
  8
0
370
           0
  6
Continuous
 62
           7
100
AcDbLine
 10
-5.0
 20
6.1875
 30
0.0
 11
-5.0
 21
2.125
 31
0.0
1001
TCAD
1000
TCW_ATTRIBUTE
1002
{
1000
<2.00>
1002
}
  0
LINE
  5
20B
100
AcDbEntity
  8
0
370
           0
  6
Continuous
 62
           7
100
AcDbLine
 10
-3.0
 20
6.1875
 30
0.0
 11
-3.0
 21
2.125
 31
0.0
1001
TCAD
1000
TCW_ATTRIBUTE
1002
{
1000
<2.00>
1002
}
  0
LWPOLYLINE
  5
20C
100
AcDbEntity
  8
0
370
           0
  6
Continuous
 62
           7
100
AcDbPolyline
 90
        2
 70
           0
 10
-5.5
 20
2.25
 10
-5.25
 20
2.25
1001
TCAD
1000
TCW_ATTRIBUTE
1002
{
1000
<2.00>
1002
}
  0
LWPOLYLINE
  5
20D
100
AcDbEntity
  8
0
370
           0
  6
Continuous
 62
           7
100
AcDbPolyline
 90
        2
 70
           0
 10
-5.0
 20
2.25
 40
0.0
 41
0.0
 10
-3.0
 20
2.25
 40
0.0
 41
0.0
1001
TCAD
1000
TCW_ATTRIBUTE
1002
{
1000
<2.00>
1002
}
  0
LWPOLYLINE
  5
20E
100
AcDbEntity
  8
0
370
           0
  6
Continuous
 62
           7
100
AcDbPolyline
 90
        3
 70
           0
 10
-0.760857583774
 20
2.25
 10
-2.5
 20
2.25
 10
-2.75
 20
2.25
1001
TCAD
1000
TCW_ATTRIBUTE
1002
{
1000
<2.00>
1002
}
  0
LWPOLYLINE
  5
210
102
{ACAD_REACTORS
330
20F
102
}
100
AcDbEntity
  8
0
370
           0
  6
Continuous
 62
           7
100
AcDbPolyline
 90
        4
 70
           0
 10
-3.0
 20
2.25
 10
-2.75
 20
2.2175
 10
-2.75
 20
2.2825
 10
-3.0
 20
2.25
1001
TCAD
1000
TCW_ATTRIBUTE
1002
{
1000
<2.00>
1002
}
  0
HATCH
  5
20F
100
AcDbEntity
  8
0
  6
Continuous
 62
           7
100
AcDbHatch
 10
0.0
 20
0.0
 30
0.0
210
0.0
220
0.0
230
1.0
  2
SOLID
 70
           1
 71
           1
 91
        1
 92
        3
 72
           0
 73
           1
 93
        3
 10
-2.9999999999999991
 20
2.25
 10
-2.7499999999999991
 20
2.2174999999999998
 10
-2.7499999999999991
 20
2.2825000000000002
 97
        1
330
210
 75
           0
 76
           0
 98
        0
1001
TCAD
1000
TCW_ATTRIBUTE
1002
{
1000
<2.00>
1002
}
  0
LWPOLYLINE
  5
212
102
{ACAD_REACTORS
330
211
102
}
100
AcDbEntity
  8
0
370
           0
  6
Continuous
 62
           7
100
AcDbPolyline
 90
        4
 70
           0
 10
-5.0
 20
2.25
 10
-5.25
 20
2.2825
 10
-5.25
 20
2.2175
 10
-5.0
 20
2.25
1001
TCAD
1000
TCW_ATTRIBUTE
1002
{
1000
<2.00>
1002
}
  0
HATCH
  5
211
100
AcDbEntity
  8
0
  6
Continuous
 62
           7
100
AcDbHatch
 10
0.0
 20
0.0
 30
0.0
210
0.0
220
0.0
230
1.0
  2
SOLID
 70
           1
 71
           1
 91
        1
 92
        3
 72
           0
 73
           1
 93
        3
 10
-4.9999999999999991
 20
2.2499999999999991
 10
-5.2499999999999991
 20
2.2824999999999993
 10
-5.2499999999999991
 20
2.2174999999999989
 97
        1
330
212
 75
           0
 76
           0
 98
        0
1001
TCAD
1000
TCW_ATTRIBUTE
1002
{
1000
<2.00>
1002
}
  0
MTEXT
  5
213
100
AcDbEntity
  8
0
  6
Continuous
 62
           7
100
AcDbMText
 10
-1.474178791887
 20
2.625
 30
0.0
 40
0.375
 41
0.0
 71
           5
 72
           1
  1
\A1;2.00{}in
 73
           1
 44
1.0
1001
TCAD
1000
TCW_REFPOINT
1002
{
1010
-1.474178791887
1020
2.625
1030
0.0
1002
}
1000
TCW_ATTRIBUTE
1002
{
1000
<2.00>
1002
}
  0
ENDBLK
  5
214
100
AcDbEntity
  8
0
100
AcDbBlockEnd
  0
BLOCK
  5
217
100
AcDbEntity
  8
0
100
AcDbBlockBegin
  2
*D8
 70
           1
 10
0.0
 20
0.0
 30
0.0
  3
*D8
  1

  0
LINE
  5
218
100
AcDbEntity
  8
0
370
           0
  6
Continuous
 62
           7
100
AcDbLine
 10
-8.0
 20
-3.3125
 30
0.0
 11
-8.0
 21
0.375
 31
0.0
1001
TCAD
1000
TCW_ATTRIBUTE
1002
{
1000
<8.00>
1002
}
  0
LINE
  5
219
100
AcDbEntity
  8
0
370
           0
  6
Continuous
 62
           7
100
AcDbLine
 10
-0.0
 20
-0.9375
 30
0.0
 11
-0.0
 21
0.375
 31
0.0
1001
TCAD
1000
TCW_ATTRIBUTE
1002
{
1000
<8.00>
1002
}
  0
LWPOLYLINE
  5
21A
100
AcDbEntity
  8
0
370
           0
  6
Continuous
 62
           7
100
AcDbPolyline
 90
        4
 70
           0
 10
-7.75
 20
0.25
 10
-7.75
 20
0.25
 10
-7.75
 20
0.25
 10
-4.0
 20
0.25
1001
TCAD
1000
TCW_ATTRIBUTE
1002
{
1000
<8.00>
1002
}
  0
LWPOLYLINE
  5
21B
100
AcDbEntity
  8
0
370
           0
  6
Continuous
 62
           7
100
AcDbPolyline
 90
        4
 70
           0
 10
-0.25
 20
0.25
 10
-0.25
 20
0.25
 10
-0.25
 20
0.25
 10
-4.0
 20
0.25
1001
TCAD
1000
TCW_ATTRIBUTE
1002
{
1000
<8.00>
1002
}
  0
LWPOLYLINE
  5
21D
102
{ACAD_REACTORS
330
21C
102
}
100
AcDbEntity
  8
0
370
           0
  6
Continuous
 62
           7
100
AcDbPolyline
 90
        4
 70
           0
 10
-8.0
 20
0.25
 10
-7.75
 20
0.2175
 10
-7.75
 20
0.2825
 10
-8.0
 20
0.25
1001
TCAD
1000
TCW_ATTRIBUTE
1002
{
1000
<8.00>
1002
}
  0
HATCH
  5
21C
100
AcDbEntity
  8
0
  6
Continuous
 62
           7
100
AcDbHatch
 10
0.0
 20
0.0
 30
0.0
210
0.0
220
0.0
230
1.0
  2
SOLID
 70
           1
 71
           1
 91
        1
 92
        3
 72
           0
 73
           1
 93
        3
 10
-7.9999999999999991
 20
0.2500000000000006
 10
-7.7499999999999991
 20
0.2175000000000006
 10
-7.7499999999999991
 20
0.2825000000000006
 97
        1
330
21D
 75
           0
 76
           0
 98
        0
1001
TCAD
1000
TCW_ATTRIBUTE
1002
{
1000
<8.00>
1002
}
  0
LWPOLYLINE
  5
21F
102
{ACAD_REACTORS
330
21E
102
}
100
AcDbEntity
  8
0
370
           0
  6
Continuous
 62
           7
100
AcDbPolyline
 90
        4
 70
           0
 10
-0.0
 20
0.25
 10
-0.25
 20
0.2825
 10
-0.25
 20
0.2175
 10
-0.0
 20
0.25
1001
TCAD
1000
TCW_ATTRIBUTE
1002
{
1000
<8.00>
1002
}
  0
HATCH
  5
21E
100
AcDbEntity
  8
0
  6
Continuous
 62
           7
100
AcDbHatch
 10
0.0
 20
0.0
 30
0.0
210
0.0
220
0.0
230
1.0
  2
SOLID
 70
           1
 71
           1
 91
        1
 92
        3
 72
           0
 73
           1
 93
        3
 10
-0.0000000000000003
 20
0.2500000000000006
 10
-0.2500000000000003
 20
0.2825000000000006
 10
-0.2500000000000003
 20
0.2175000000000006
 97
        1
330
21F
 75
           0
 76
           0
 98
        0
1001
TCAD
1000
TCW_ATTRIBUTE
1002
{
1000
<8.00>
1002
}
  0
MTEXT
  5
220
100
AcDbEntity
  8
0
  6
Continuous
 62
           7
100
AcDbMText
 10
-4.0
 20
0.625
 30
0.0
 40
0.375
 41
0.0
 71
           5
 72
           1
  1
\A1;8.00{}in
 73
           1
 44
1.0
1001
TCAD
1000
TCW_REFPOINT
1002
{
1010
-4.0
1020
0.625
1030
0.0
1002
}
1000
TCW_ATTRIBUTE
1002
{
1000
<8.00>
1002
}
  0
ENDBLK
  5
221
100
AcDbEntity
  8
0
100
AcDbBlockEnd
  0
BLOCK
  5
224
100
AcDbEntity
  8
0
100
AcDbBlockBegin
  2
*D9
 70
           1
 10
0.0
 20
0.0
 30
0.0
  3
*D9
  1

  0
LINE
  5
225
100
AcDbEntity
  8
0
370
           0
  6
Continuous
 62
           7
100
AcDbLine
 10
-2.0
 20
-0.9375
 30
0.0
 11
-2.0
 21
-0.375
 31
0.0
1001
TCAD
1000
TCW_ATTRIBUTE
1002
{
1000
<1.00>
1002
}
  0
LINE
  5
226
100
AcDbEntity
  8
0
370
           0
  6
Continuous
 62
           7
100
AcDbLine
 10
-3.0
 20
-0.9375
 30
0.0
 11
-3.0
 21
-0.375
 31
0.0
1001
TCAD
1000
TCW_ATTRIBUTE
1002
{
1000
<1.00>
1002
}
  0
LWPOLYLINE
  5
227
100
AcDbEntity
  8
0
370
           0
  6
Continuous
 62
           7
100
AcDbPolyline
 90
        2
 70
           0
 10
-1.5
 20
-0.5
 10
-1.75
 20
-0.5
1001
TCAD
1000
TCW_ATTRIBUTE
1002
{
1000
<1.00>
1002
}
  0
LWPOLYLINE
  5
228
100
AcDbEntity
  8
0
370
           0
  6
Continuous
 62
           7
100
AcDbPolyline
 90
        2
 70
           0
 10
-2.0
 20
-0.5
 40
0.0
 41
0.0
 10
-3.0
 20
-0.5
 40
0.0
 41
0.0
1001
TCAD
1000
TCW_ATTRIBUTE
1002
{
1000
<1.00>
1002
}
  0
LWPOLYLINE
  5
229
100
AcDbEntity
  8
0
370
           0
  6
Continuous
 62
           7
100
AcDbPolyline
 90
        3
 70
           0
 10
-5.239142416226
 20
-0.5
 10
-3.5
 20
-0.5
 10
-3.25
 20
-0.5
1001
TCAD
1000
TCW_ATTRIBUTE
1002
{
1000
<1.00>
1002
}
  0
LWPOLYLINE
  5
22B
102
{ACAD_REACTORS
330
22A
102
}
100
AcDbEntity
  8
0
370
           0
  6
Continuous
 62
           7
100
AcDbPolyline
 90
        4
 70
           0
 10
-3.0
 20
-0.5
 10
-3.25
 20
-0.4675
 10
-3.25
 20
-0.5325
 10
-3.0
 20
-0.5
1001
TCAD
1000
TCW_ATTRIBUTE
1002
{
1000
<1.00>
1002
}
  0
HATCH
  5
22A
100
AcDbEntity
  8
0
  6
Continuous
 62
           7
100
AcDbHatch
 10
0.0
 20
0.0
 30
0.0
210
0.0
220
0.0
230
1.0
  2
SOLID
 70
           1
 71
           1
 91
        1
 92
        3
 72
           0
 73
           1
 93
        3
 10
-3.0
 20
-0.5
 10
-3.25
 20
-0.4674999999999999
 10
-3.25
 20
-0.5325
 97
        1
330
22B
 75
           0
 76
           0
 98
        0
1001
TCAD
1000
TCW_ATTRIBUTE
1002
{
1000
<1.00>
1002
}
  0
LWPOLYLINE
  5
22D
102
{ACAD_REACTORS
330
22C
102
}
100
AcDbEntity
  8
0
370
           0
  6
Continuous
 62
           7
100
AcDbPolyline
 90
        4
 70
           0
 10
-2.0
 20
-0.5
 10
-1.75
 20
-0.5325
 10
-1.75
 20
-0.4675
 10
-2.0
 20
-0.5
1001
TCAD
1000
TCW_ATTRIBUTE
1002
{
1000
<1.00>
1002
}
  0
HATCH
  5
22C
100
AcDbEntity
  8
0
  6
Continuous
 62
           7
100
AcDbHatch
 10
0.0
 20
0.0
 30
0.0
210
0.0
220
0.0
230
1.0
  2
SOLID
 70
           1
 71
           1
 91
        1
 92
        3
 72
           0
 73
           1
 93
        3
 10
-2.0
 20
-0.5000000000000002
 10
-1.75
 20
-0.5325000000000002
 10
-1.75
 20
-0.4675000000000003
 97
        1
330
22D
 75
           0
 76
           0
 98
        0
1001
TCAD
1000
TCW_ATTRIBUTE
1002
{
1000
<1.00>
1002
}
  0
MTEXT
  5
22E
100
AcDbEntity
  8
0
  6
Continuous
 62
           7
100
AcDbMText
 10
-4.525821208113
 20
-0.125
 30
0.0
 40
0.375
 41
0.0
 71
           5
 72
           1
  1
\A1;1.00{}in
 73
           1
 44
1.0
1001
TCAD
1000
TCW_REFPOINT
1002
{
1010
-4.525821208113
1020
-0.125
1030
0.0
1002
}
1000
TCW_ATTRIBUTE
1002
{
1000
<1.00>
1002
}
  0
ENDBLK
  5
22F
100
AcDbEntity
  8
0
100
AcDbBlockEnd
  0
BLOCK
  5
232
100
AcDbEntity
  8
0
100
AcDbBlockBegin
  2
*D10
 70
           1
 10
0.0
 20
0.0
 30
0.0
  3
*D10
  1

  0
LINE
  5
233
100
AcDbEntity
  8
0
370
           0
  6
Continuous
 62
           7
100
AcDbLine
 10
-2.0
 20
-0.9375
 30
0.0
 11
-2.0
 21
-0.375
 31
0.0
1001
TCAD
1000
TCW_ATTRIBUTE
1002
{
1000
<2.00>
1002
}
  0
LINE
  5
234
100
AcDbEntity
  8
0
370
           0
  6
Continuous
 62
           7
100
AcDbLine
 10
0.0
 20
-0.9375
 30
0.0
 11
0.0
 21
-0.375
 31
0.0
1001
TCAD
1000
TCW_ATTRIBUTE
1002
{
1000
<2.00>
1002
}
  0
LWPOLYLINE
  5
235
100
AcDbEntity
  8
0
370
           0
  6
Continuous
 62
           7
100
AcDbPolyline
 90
        2
 70
           0
 10
-2.5
 20
-0.5
 10
-2.25
 20
-0.5
1001
TCAD
1000
TCW_ATTRIBUTE
1002
{
1000
<2.00>
1002
}
  0
LWPOLYLINE
  5
236
100
AcDbEntity
  8
0
370
           0
  6
Continuous
 62
           7
100
AcDbPolyline
 90
        2
 70
           0
 10
-2.0
 20
-0.5
 40
0.0
 41
0.0
 10
0.0
 20
-0.5
 40
0.0
 41
0.0
1001
TCAD
1000
TCW_ATTRIBUTE
1002
{
1000
<2.00>
1002
}
  0
LWPOLYLINE
  5
237
100
AcDbEntity
  8
0
370
           0
  6
Continuous
 62
           7
100
AcDbPolyline
 90
        3
 70
           0
 10
2.239142416226
 20
-0.5
 10
0.5
 20
-0.5
 10
0.25
 20
-0.5
1001
TCAD
1000
TCW_ATTRIBUTE
1002
{
1000
<2.00>
1002
}
  0
LWPOLYLINE
  5
239
102
{ACAD_REACTORS
330
238
102
}
100
AcDbEntity
  8
0
370
           0
  6
Continuous
 62
           7
100
AcDbPolyline
 90
        4
 70
           0
 10
0.0
 20
-0.5
 10
0.25
 20
-0.5325
 10
0.25
 20
-0.4675
 10
0.0
 20
-0.5
1001
TCAD
1000
TCW_ATTRIBUTE
1002
{
1000
<2.00>
1002
}
  0
HATCH
  5
238
100
AcDbEntity
  8
0
  6
Continuous
 62
           7
100
AcDbHatch
 10
0.0
 20
0.0
 30
0.0
210
0.0
220
0.0
230
1.0
  2
SOLID
 70
           1
 71
           1
 91
        1
 92
        3
 72
           0
 73
           1
 93
        3
 10
0.0
 20
-0.5000000000000002
 10
0.25
 20
-0.5325000000000002
 10
0.25
 20
-0.4675000000000003
 97
        1
330
239
 75
           0
 76
           0
 98
        0
1001
TCAD
1000
TCW_ATTRIBUTE
1002
{
1000
<2.00>
1002
}
  0
LWPOLYLINE
  5
23B
102
{ACAD_REACTORS
330
23A
102
}
100
AcDbEntity
  8
0
370
           0
  6
Continuous
 62
           7
100
AcDbPolyline
 90
        4
 70
           0
 10
-2.0
 20
-0.5
 10
-2.25
 20
-0.4675
 10
-2.25
 20
-0.5325
 10
-2.0
 20
-0.5
1001
TCAD
1000
TCW_ATTRIBUTE
1002
{
1000
<2.00>
1002
}
  0
HATCH
  5
23A
100
AcDbEntity
  8
0
  6
Continuous
 62
           7
100
AcDbHatch
 10
0.0
 20
0.0
 30
0.0
210
0.0
220
0.0
230
1.0
  2
SOLID
 70
           1
 71
           1
 91
        1
 92
        3
 72
           0
 73
           1
 93
        3
 10
-2.0
 20
-0.5000000000000004
 10
-2.25
 20
-0.4675000000000005
 10
-2.25
 20
-0.5325000000000004
 97
        1
330
23B
 75
           0
 76
           0
 98
        0
1001
TCAD
1000
TCW_ATTRIBUTE
1002
{
1000
<2.00>
1002
}
  0
MTEXT
  5
23C
100
AcDbEntity
  8
0
  6
Continuous
 62
           7
100
AcDbMText
 10
1.525821208113
 20
-0.125
 30
0.0
 40
0.375
 41
0.0
 71
           5
 72
           1
  1
\A1;2.00{}in
 73
           1
 44
1.0
1001
TCAD
1000
TCW_REFPOINT
1002
{
1010
1.525821208113
1020
-0.125
1030
0.0
1002
}
1000
TCW_ATTRIBUTE
1002
{
1000
<2.00>
1002
}
  0
ENDBLK
  5
23D
100
AcDbEntity
  8
0
100
AcDbBlockEnd
  0
BLOCK
  5
240
100
AcDbEntity
  8
0
100
AcDbBlockBegin
  2
*D11
 70
           1
 10
0.0
 20
0.0
 30
0.0
  3
*D11
  1

  0
LINE
  5
241
100
AcDbEntity
  8
0
370
           0
  6
Continuous
 62
           7
100
AcDbLine
 10
3.0
 20
-6.6875
 30
0.0
 11
3.0
 21
2.125
 31
0.0
1001
TCAD
1000
TCW_ATTRIBUTE
1002
{
1000
<11.75>
1002
}
  0
LINE
  5
242
100
AcDbEntity
  8
0
370
           0
  6
Continuous
 62
           7
100
AcDbLine
 10
14.75
 20
-6.6875
 30
0.0
 11
14.75
 21
2.125
 31
0.0
1001
TCAD
1000
TCW_ATTRIBUTE
1002
{
1000
<11.75>
1002
}
  0
LWPOLYLINE
  5
243
100
AcDbEntity
  8
0
370
           0
  6
Continuous
 62
           7
100
AcDbPolyline
 90
        4
 70
           0
 10
3.25
 20
2.0
 10
3.25
 20
2.0
 10
3.25
 20
2.0
 10
8.875
 20
2.0
1001
TCAD
1000
TCW_ATTRIBUTE
1002
{
1000
<11.75>
1002
}
  0
LWPOLYLINE
  5
244
100
AcDbEntity
  8
0
370
           0
  6
Continuous
 62
           7
100
AcDbPolyline
 90
        4
 70
           0
 10
14.5
 20
2.0
 10
14.5
 20
2.0
 10
14.5
 20
2.0
 10
8.875
 20
2.0
1001
TCAD
1000
TCW_ATTRIBUTE
1002
{
1000
<11.75>
1002
}
  0
LWPOLYLINE
  5
246
102
{ACAD_REACTORS
330
245
102
}
100
AcDbEntity
  8
0
370
           0
  6
Continuous
 62
           7
100
AcDbPolyline
 90
        4
 70
           0
 10
3.0
 20
2.0
 10
3.25
 20
1.9675
 10
3.25
 20
2.0325
 10
3.0
 20
2.0
1001
TCAD
1000
TCW_ATTRIBUTE
1002
{
1000
<11.75>
1002
}
  0
HATCH
  5
245
100
AcDbEntity
  8
0
  6
Continuous
 62
           7
100
AcDbHatch
 10
0.0
 20
0.0
 30
0.0
210
0.0
220
0.0
230
1.0
  2
SOLID
 70
           1
 71
           1
 91
        1
 92
        3
 72
           0
 73
           1
 93
        3
 10
3.0
 20
2.0000000000000009
 10
3.25
 20
1.9675000000000009
 10
3.25
 20
2.0325000000000011
 97
        1
330
246
 75
           0
 76
           0
 98
        0
1001
TCAD
1000
TCW_ATTRIBUTE
1002
{
1000
<11.75>
1002
}
  0
LWPOLYLINE
  5
248
102
{ACAD_REACTORS
330
247
102
}
100
AcDbEntity
  8
0
370
           0
  6
Continuous
 62
           7
100
AcDbPolyline
 90
        4
 70
           0
 10
14.75
 20
2.0
 10
14.5
 20
2.0325
 10
14.5
 20
1.9675
 10
14.75
 20
2.0
1001
TCAD
1000
TCW_ATTRIBUTE
1002
{
1000
<11.75>
1002
}
  0
HATCH
  5
247
100
AcDbEntity
  8
0
  6
Continuous
 62
           7
100
AcDbHatch
 10
0.0
 20
0.0
 30
0.0
210
0.0
220
0.0
230
1.0
  2
SOLID
 70
           1
 71
           1
 91
        1
 92
        3
 72
           0
 73
           1
 93
        3
 10
14.75
 20
1.9999999999999989
 10
14.5
 20
2.0324999999999989
 10
14.5
 20
1.9674999999999989
 97
        1
330
248
 75
           0
 76
           0
 98
        0
1001
TCAD
1000
TCW_ATTRIBUTE
1002
{
1000
<11.75>
1002
}
  0
MTEXT
  5
249
100
AcDbEntity
  8
0
  6
Continuous
 62
           7
100
AcDbMText
 10
8.875
 20
2.375
 30
0.0
 40
0.375
 41
0.0
 71
           5
 72
           1
  1
\A1;11.75{}in
 73
           1
 44
1.0
1001
TCAD
1000
TCW_REFPOINT
1002
{
1010
8.875
1020
2.375
1030
0.0
1002
}
1000
TCW_ATTRIBUTE
1002
{
1000
<11.75>
1002
}
  0
ENDBLK
  5
24A
100
AcDbEntity
  8
0
100
AcDbBlockEnd
  0
ENDSEC
  0
SECTION
  2
ENTITIES
  0
LINE
  5
36
100
AcDbEntity
  8
Exterior View
370
           0
  6
Continuous
 62
           7
100
AcDbLine
 10
-20.0
 20
-6.75
 30
0.0
 11
0.0
 21
-6.75
 31
0.0
1001
TCAD
1000
TCW_CUSTOM_DATA
1002
{
1000
#$AUX@_ToolInfo Properties
1070
           8
1000
Insert^JLine^JPerpendicular@Line Perpendicular
1002
}
  0
LINE
  5
37
100
AcDbEntity
  8
Exterior View
370
           0
  6
Continuous
 62
           7
100
AcDbLine
 10
-3.0
 20
-6.75
 30
0.0
 11
-3.0
 21
-1.0
 31
0.0
1001
TCAD
1000
TCW_CUSTOM_DATA
1002
{
1000
#$AUX@_ToolInfo Properties
1070
           8
1000
Insert^JLine^JPerpendicular@Line Perpendicular
1002
}
  0
LINE
  5
38
100
AcDbEntity
  8
Exterior View
370
           0
  6
Continuous
 62
           7
100
AcDbLine
 10
-2.0
 20
-6.75
 30
0.0
 11
-2.0
 21
-1.0
 31
0.0
1001
TCAD
1000
TCW_CUSTOM_DATA
1002
{
1000
#$AUX@_ToolInfo Properties
1070
           8
1000
Insert^JLine^JPerpendicular@Line Perpendicular
1002
}
  0
LINE
  5
39
100
AcDbEntity
  8
Exterior View
370
           0
  6
Continuous
 62
           7
100
AcDbLine
 10
0.0
 20
-6.75
 30
0.0
 11
0.0
 21
-1.0
 31
0.0
1001
TCAD
1000
TCW_CUSTOM_DATA
1002
{
1000
#$AUX@_ToolInfo Properties
1070
           8
1000
Insert^JLine^JPerpendicular@Line Perpendicular
1002
}
  0
LINE
  5
3A
100
AcDbEntity
  8
Exterior View
370
           0
  6
Continuous
 62
           7
100
AcDbLine
 10
-3.0
 20
-1.0
 30
0.0
 11
0.0
 21
-1.0
 31
0.0
1001
TCAD
1000
TCW_CUSTOM_DATA
1002
{
1000
#$AUX@_ToolInfo Properties
1070
           8
1000
Insert^JLine^JPerpendicular@Line Perpendicular
1002
}
  0
LINE
  5
3B
100
AcDbEntity
  8
Exterior View
370
           0
  6
Continuous
 62
           7
100
AcDbLine
 10
-20.0
 20
-6.75
 30
0.0
 11
-20.0
 21
-7.75
 31
0.0
1001
TCAD
1000
TCW_CUSTOM_DATA
1002
{
1000
#$AUX@_ToolInfo Properties
1070
           8
1000
Insert^JLine^JPerpendicular@Line Perpendicular
1002
}
  0
LINE
  5
3C
100
AcDbEntity
  8
Exterior View
370
           0
  6
Continuous
 62
           7
100
AcDbLine
 10
0.0
 20
-6.75
 30
0.0
 11
0.0
 21
-7.75
 31
0.0
1001
TCAD
1000
TCW_CUSTOM_DATA
1002
{
1000
#$AUX@_ToolInfo Properties
1070
           8
1000
Insert^JLine^JPerpendicular@Line Perpendicular
1002
}
  0
LINE
  5
3D
100
AcDbEntity
  8
Exterior View
370
           0
  6
Continuous
 62
           7
100
AcDbLine
 10
-20.0
 20
-7.75
 30
0.0
 11
0.0
 21
-7.75
 31
0.0
1001
TCAD
1000
TCW_CUSTOM_DATA
1002
{
1000
#$AUX@_ToolInfo Properties
1070
           8
1000
Insert^JLine^JPerpendicular@Line Perpendicular
1002
}
  0
LINE
  5
3E
100
AcDbEntity
  8
Exterior View
370
           0
  6
Continuous
 62
           7
100
AcDbLine
 10
-3.0
 20
-6.625
 30
0.0
 11
-5.75
 21
-6.625
 31
0.0
1001
TCAD
1000
TCW_CUSTOM_DATA
1002
{
1000
#$AUX@_ToolInfo Properties
1070
           8
1000
Insert^JLine^JPerpendicular@Line Perpendicular
1002
}
  0
LINE
  5
3F
100
AcDbEntity
  8
Exterior View
370
           0
  6
Continuous
 62
           7
100
AcDbLine
 10
-5.75
 20
-6.75
 30
0.0
 11
-5.75
 21
-6.625
 31
0.0
1001
TCAD
1000
TCW_CUSTOM_DATA
1002
{
1000
#$AUX@_ToolInfo Properties
1070
           8
1000
Insert^JLine^JPerpendicular@Line Perpendicular
1002
}
  0
LINE
  5
40
100
AcDbEntity
  8
Hidden
370
           0
  6
HIDDEN
 62
           7
 48
0.20000000298
100
AcDbLine
 10
-5.0
 20
-7.75
 30
0.0
 11
-5.0
 21
-6.75
 31
0.0
1001
TCAD
1000
TCW_CUSTOM_DATA
1002
{
1000
#$AUX@_ToolInfo Properties
1070
           8
1000
Insert^JLine^JPerpendicular@Line Perpendicular
1002
}
  0
LINE
  5
41
100
AcDbEntity
  8
Hidden
370
           0
  6
HIDDEN
 62
           7
 48
0.20000000298
100
AcDbLine
 10
-3.0
 20
-7.75
 30
0.0
 11
-3.0
 21
-6.75
 31
0.0
1001
TCAD
1000
TCW_CUSTOM_DATA
1002
{
1000
#$AUX@_ToolInfo Properties
1070
           8
1000
Insert^JLine^JPerpendicular@Line Perpendicular
1002
}
  0
LINE
  5
42
100
AcDbEntity
  8
Hidden
370
           0
  6
HIDDEN
 62
           7
 48
0.20000000298
100
AcDbLine
 10
-3.0
 20
-1.125
 30
0.0
 11
-2.0
 21
-1.125
 31
0.0
1001
TCAD
1000
TCW_CUSTOM_DATA
1002
{
1000
#$AUX@_ToolInfo Properties
1070
           8
1000
Insert^JLine^JSingle@Line Single
1002
}
  0
LINE
  5
43
100
AcDbEntity
  8
Exterior View
370
           0
  6
Continuous
 62
           7
100
AcDbLine
 10
-8.0
 20
-6.75
 30
0.0
 11
-8.0
 21
-3.375
 31
0.0
1001
TCAD
1000
TCW_CUSTOM_DATA
1002
{
1000
#$AUX@_ToolInfo Properties
1070
           8
1000
Insert^JLine^JPerpendicular@Line Perpendicular
1002
}
  0
LINE
  5
44
100
AcDbEntity
  8
Exterior View
370
           0
  6
Continuous
 62
           7
100
AcDbLine
 10
-8.125
 20
-6.75
 30
0.0
 11
-8.125
 21
-3.375
 31
0.0
1001
TCAD
1000
TCW_CUSTOM_DATA
1002
{
1000
#$AUX@_ToolInfo Properties
1070
           8
1000
Insert^JLine^JPerpendicular@Line Perpendicular
1002
}
  0
LINE
  5
45
100
AcDbEntity
  8
Exterior View
370
           0
  6
Continuous
 62
           7
100
AcDbLine
 10
-8.125
 20
-3.375
 30
0.0
 11
-8.0
 21
-3.375
 31
0.0
1001
TCAD
1000
TCW_CUSTOM_DATA
1002
{
1000
#$AUX@_ToolInfo Properties
1070
           8
1000
Insert^JLine^JPerpendicular@Line Perpendicular
1002
}
  0
LINE
  5
46
100
AcDbEntity
  8
Exterior View
370
           0
  6
Continuous
 62
           7
100
AcDbLine
 10
-9.25
 20
-6.75
 30
0.0
 11
-8.125
 21
-5.625
 31
0.0
1001
TCAD
1000
TCW_CUSTOM_DATA
1002
{
1000
#$AUX@_ToolInfo Properties
1070
           8
1000
Insert^JLine^JSingle@Line Single
1002
}
  0
LINE
  5
47
100
AcDbEntity
  8
Exterior View
370
           0
  6
Continuous
 62
           7
100
AcDbLine
 10
-8.0
 20
-5.625
 30
0.0
 11
-6.875
 21
-6.75
 31
0.0
1001
TCAD
1000
TCW_CUSTOM_DATA
1002
{
1000
#$AUX@_ToolInfo Properties
1070
           8
1000
Insert^JLine^JSingle@Line Single
1002
}
  0
LINE
  5
48
100
AcDbEntity
  8
Exterior View
370
           0
  6
Continuous
 62
           7
100
AcDbLine
 10
-8.0
 20
-3.375
 30
0.0
 11
-7.5
 21
-3.375
 31
0.0
1001
TCAD
1000
TCW_CUSTOM_DATA
1002
{
1000
#$AUX@_ToolInfo Properties
1070
           8
1000
Insert^JLine^JSingle@Line Single
1002
}
  0
LINE
  5
49
100
AcDbEntity
  8
Exterior View
370
           0
  6
Continuous
 62
           7
100
AcDbLine
 10
-7.5
 20
-3.375
 30
0.0
 11
-7.5
 21
-4.625
 31
0.0
1001
TCAD
1000
TCW_CUSTOM_DATA
1002
{
1000
#$AUX@_ToolInfo Properties
1070
           8
1000
Insert^JLine^JSingle@Line Single
1002
}
  0
LINE
  5
4A
100
AcDbEntity
  8
Exterior View
370
           0
  6
Continuous
 62
           7
100
AcDbLine
 10
-7.5
 20
-4.625
 30
0.0
 11
-8.0
 21
-4.625
 31
0.0
1001
TCAD
1000
TCW_CUSTOM_DATA
1002
{
1000
#$AUX@_ToolInfo Properties
1070
           8
1000
Insert^JLine^JSingle@Line Single
1002
}
  0
LINE
  5
4B
100
AcDbEntity
  8
Exterior View
370
           0
  6
Continuous
 62
           7
100
AcDbLine
 10
-7.5
 20
-3.5625
 30
0.0
 11
-6.75
 21
-3.5625
 31
0.0
1001
TCAD
1000
TCW_CUSTOM_DATA
1002
{
1000
#$AUX@_ToolInfo Properties
1070
           8
1000
Insert^JLine^JSingle@Line Single
1002
}
  0
LINE
  5
4C
100
AcDbEntity
  8
Exterior View
370
           0
  6
Continuous
 62
           7
100
AcDbLine
 10
-6.75
 20
-3.5625
 30
0.0
 11
-6.75
 21
-4.3125
 31
0.0
1001
TCAD
1000
TCW_CUSTOM_DATA
1002
{
1000
#$AUX@_ToolInfo Properties
1070
           8
1000
Insert^JLine^JSingle@Line Single
1002
}
  0
LINE
  5
4D
100
AcDbEntity
  8
Exterior View
370
           0
  6
Continuous
 62
           7
100
AcDbLine
 10
-7.5
 20
-4.3125
 30
0.0
 11
-6.75
 21
-4.3125
 31
0.0
1001
TCAD
1000
TCW_CUSTOM_DATA
1002
{
1000
#$AUX@_ToolInfo Properties
1070
           8
1000
Insert^JLine^JSingle@Line Single
1002
}
  0
LINE
  5
4E
100
AcDbEntity
  8
Exterior View
370
           0
  6
Continuous
 62
           7
100
AcDbLine
 10
-7.4375
 20
-2.5625
 30
0.0
 11
-6.8125
 21
-2.5625
 31
0.0
1001
TCAD
1000
TCW_CUSTOM_DATA
1002
{
1000
#$AUX@_ToolInfo Properties
1070
           8
1000
Insert^JLine^JSingle@Line Single
1002
}
  0
LINE
  5
4F
100
AcDbEntity
  8
Exterior View
370
           0
  6
Continuous
 62
           7
100
AcDbLine
 10
-6.75
 20
-2.75
 30
0.0
 11
-6.875
 21
-3.5625
 31
0.0
1001
TCAD
1000
TCW_CUSTOM_DATA
1002
{
1000
#$AUX@_ToolInfo Properties
1070
           8
1000
Insert^JLine^JSingle@Line Single
1002
}
  0
LINE
  5
50
100
AcDbEntity
  8
Exterior View
370
           0
  6
Continuous
 62
           7
100
AcDbLine
 10
-7.5
 20
-2.75
 30
0.0
 11
-7.375
 21
-3.5625
 31
0.0
1001
TCAD
1000
TCW_CUSTOM_DATA
1002
{
1000
#$AUX@_ToolInfo Properties
1070
           8
1000
Insert^JLine^JSingle@Line Single
1002
}
  0
LINE
  5
51
100
AcDbEntity
  8
Exterior View
370
           0
  6
Continuous
 62
           7
100
AcDbLine
 10
-6.8125
 20
-2.5625
 30
0.0
 11
-6.75
 21
-2.6875
 31
0.0
1001
TCAD
1000
TCW_CUSTOM_DATA
1002
{
1000
#$AUX@_ToolInfo Properties
1070
           8
1000
Insert^JLine^JSingle@Line Single
1002
}
  0
LINE
  5
52
100
AcDbEntity
  8
Exterior View
370
           0
  6
Continuous
 62
           7
100
AcDbLine
 10
-7.4375
 20
-2.5625
 30
0.0
 11
-7.5
 21
-2.6875
 31
0.0
1001
TCAD
1000
TCW_CUSTOM_DATA
1002
{
1000
#$AUX@_ToolInfo Properties
1070
           8
1000
Insert^JLine^JSingle@Line Single
1002
}
  0
LINE
  5
53
100
AcDbEntity
  8
Exterior View
370
           0
  6
Continuous
 62
           7
100
AcDbLine
 10
-7.5
 20
-2.6875
 30
0.0
 11
-7.5
 21
-2.75
 31
0.0
1001
TCAD
1000
TCW_CUSTOM_DATA
1002
{
1000
#$AUX@_ToolInfo Properties
1070
           8
1000
Insert^JLine^JSingle@Line Single
1002
}
  0
LINE
  5
54
100
AcDbEntity
  8
Exterior View
370
           0
  6
Continuous
 62
           7
100
AcDbLine
 10
-6.75
 20
-2.6875
 30
0.0
 11
-6.75
 21
-2.75
 31
0.0
1001
TCAD
1000
TCW_CUSTOM_DATA
1002
{
1000
#$AUX@_ToolInfo Properties
1070
           8
1000
Insert^JLine^JSingle@Line Single
1002
}
  0
LINE
  5
55
100
AcDbEntity
  8
Exterior View
370
           0
  6
Continuous
 62
           7
100
AcDbLine
 10
-6.75
 20
-3.75
 30
0.0
 11
-6.25
 21
-3.75
 31
0.0
1001
TCAD
1000
TCW_CUSTOM_DATA
1002
{
1000
#$AUX@_ToolInfo Properties
1070
           8
1000
Insert^JLine^JSingle@Line Single
1002
}
  0
LINE
  5
56
100
AcDbEntity
  8
Exterior View
370
           0
  6
Continuous
 62
           7
100
AcDbLine
 10
-6.75
 20
-4.125
 30
0.0
 11
-6.25
 21
-4.125
 31
0.0
1001
TCAD
1000
TCW_CUSTOM_DATA
1002
{
1000
#$AUX@_ToolInfo Properties
1070
           8
1000
Insert^JLine^JSingle@Line Single
1002
}
  0
LINE
  5
57
100
AcDbEntity
  8
Exterior View
370
           0
  6
Continuous
 62
           7
100
AcDbLine
 10
-6.0
 20
-6.4375
 30
0.0
 11
-6.0
 21
-3.6875
 31
0.0
1001
TCAD
1000
TCW_CUSTOM_DATA
1002
{
1000
#$AUX@_ToolInfo Properties
1070
           8
1000
Insert^JLine^JSingle@Line Single
1002
}
  0
LINE
  5
58
100
AcDbEntity
  8
Exterior View
370
           0
  6
Continuous
 62
           7
100
AcDbLine
 10
-6.25
 20
-1.4375
 30
0.0
 11
-6.25
 21
-4.125
 31
0.0
1001
TCAD
1000
TCW_CUSTOM_DATA
1002
{
1000
#$AUX@_ToolInfo Properties
1070
           8
1000
Insert^JLine^JSingle@Line Single
1002
}
  0
LINE
  5
59
100
AcDbEntity
  8
Exterior View
370
           0
  6
Continuous
 62
           7
100
AcDbLine
 10
-6.0625
 20
-6.4375
 30
0.0
 11
-6.0
 21
-6.4375
 31
0.0
1001
TCAD
1000
TCW_CUSTOM_DATA
1002
{
1000
#$AUX@_ToolInfo Properties
1070
           8
1000
Insert^JLine^JSingle@Line Single
1002
}
  0
LINE
  5
5A
100
AcDbEntity
  8
Exterior View
370
           0
  6
Continuous
 62
           7
100
AcDbLine
 10
-6.25
 20
-1.4375
 30
0.0
 11
-6.1875
 21
-1.4375
 31
0.0
1001
TCAD
1000
TCW_CUSTOM_DATA
1002
{
1000
#$AUX@_ToolInfo Properties
1070
           8
1000
Insert^JLine^JSingle@Line Single
1002
}
  0
LINE
  5
5B
100
AcDbEntity
  8
Exterior View
370
           0
  6
Continuous
 62
           7
100
AcDbLine
 10
-6.0
 20
-3.75
 30
0.0
 11
-6.1875
 21
-1.4375
 31
0.0
1001
TCAD
1000
TCW_CUSTOM_DATA
1002
{
1000
#$AUX@_ToolInfo Properties
1070
           8
1000
Insert^JLine^JSingle@Line Single
1002
}
  0
LINE
  5
5C
100
AcDbEntity
  8
Exterior View
370
           0
  6
Continuous
 62
           7
100
AcDbLine
 10
-6.25
 20
-4.125
 30
0.0
 11
-6.0625
 21
-6.4375
 31
0.0
1001
TCAD
1000
TCW_CUSTOM_DATA
1002
{
1000
#$AUX@_ToolInfo Properties
1070
           8
1000
Insert^JLine^JSingle@Line Single
1002
}
  0
POLYLINE
  5
5D
100
AcDbEntity
  8
0
370
           0
  6
Continuous
 62
           7
100
AcDb2dPolyline
 66
           1
 10
0.0
 20
0.0
 30
0.0
 70
         132
 75
           6
1001
TCAD
1000
TCW_CUSTOM_DATA
1002
{
1000
#$AUX@_ToolInfo Properties
1070
           8
1000
Insert^JCurve^JSpline@Curve Spline
1002
}
  0
VERTEX
  5
5E
100
AcDbEntity
  8
0
  6
Continuous
 62
           7
100
AcDbVertex
100
AcDb2dVertex
 10
-20.0
 20
-7.75
 30
0.0
 70
          16
  0
VERTEX
  5
5F
100
AcDbEntity
  8
0
  6
Continuous
 62
           7
100
AcDbVertex
100
AcDb2dVertex
 10
-18.5
 20
-8.75
 30
0.0
 70
          16
  0
VERTEX
  5
60
100
AcDbEntity
  8
0
  6
Continuous
 62
           7
100
AcDbVertex
100
AcDb2dVertex
 10
-18.125
 20
-8.75
 30
0.0
 70
          16
  0
VERTEX
  5
61
100
AcDbEntity
  8
0
  6
Continuous
 62
           7
100
AcDbVertex
100
AcDb2dVertex
 10
-20.0
 20
-7.75
 30
0.0
 70
           8
  0
VERTEX
  5
62
100
AcDbEntity
  8
0
  6
Continuous
 62
           7
100
AcDbVertex
100
AcDb2dVertex
 10
-19.9250234375
 20
-7.799979166667
 30
0.0
 70
           8
  0
VERTEX
  5
63
100
AcDbEntity
  8
0
  6
Continuous
 62
           7
100
AcDbVertex
100
AcDb2dVertex
 10
-19.8501875
 20
-7.849833333333
 30
0.0
 70
           8
  0
VERTEX
  5
64
100
AcDbEntity
  8
0
  6
Continuous
 62
           7
100
AcDbVertex
100
AcDb2dVertex
 10
-19.7756328125
 20
-7.8994375
 30
0.0
 70
           8
  0
VERTEX
  5
65
100
AcDbEntity
  8
0
  6
Continuous
 62
           7
100
AcDbVertex
100
AcDb2dVertex
 10
-19.7015
 20
-7.948666666667
 30
0.0
 70
           8
  0
VERTEX
  5
66
100
AcDbEntity
  8
0
  6
Continuous
 62
           7
100
AcDbVertex
100
AcDb2dVertex
 10
-19.6279296875
 20
-7.997395833333
 30
0.0
 70
           8
  0
VERTEX
  5
67
100
AcDbEntity
  8
0
  6
Continuous
 62
           7
100
AcDbVertex
100
AcDb2dVertex
 10
-19.5550625
 20
-8.0455
 30
0.0
 70
           8
  0
VERTEX
  5
68
100
AcDbEntity
  8
0
  6
Continuous
 62
           7
100
AcDbVertex
100
AcDb2dVertex
 10
-19.4830390625
 20
-8.092854166667
 30
0.0
 70
           8
  0
VERTEX
  5
69
100
AcDbEntity
  8
0
  6
Continuous
 62
           7
100
AcDbVertex
100
AcDb2dVertex
 10
-19.412
 20
-8.139333333333
 30
0.0
 70
           8
  0
VERTEX
  5
6A
100
AcDbEntity
  8
0
  6
Continuous
 62
           7
100
AcDbVertex
100
AcDb2dVertex
 10
-19.3420859375
 20
-8.1848125
 30
0.0
 70
           8
  0
VERTEX
  5
6B
100
AcDbEntity
  8
0
  6
Continuous
 62
           7
100
AcDbVertex
100
AcDb2dVertex
 10
-19.2734375
 20
-8.229166666667
 30
0.0
 70
           8
  0
VERTEX
  5
6C
100
AcDbEntity
  8
0
  6
Continuous
 62
           7
100
AcDbVertex
100
AcDb2dVertex
 10
-19.2061953125
 20
-8.272270833333
 30
0.0
 70
           8
  0
VERTEX
  5
6D
100
AcDbEntity
  8
0
  6
Continuous
 62
           7
100
AcDbVertex
100
AcDb2dVertex
 10
-19.1405
 20
-8.314
 30
0.0
 70
           8
  0
VERTEX
  5
6E
100
AcDbEntity
  8
0
  6
Continuous
 62
           7
100
AcDbVertex
100
AcDb2dVertex
 10
-19.0764921875
 20
-8.354229166667
 30
0.0
 70
           8
  0
VERTEX
  5
6F
100
AcDbEntity
  8
0
  6
Continuous
 62
           7
100
AcDbVertex
100
AcDb2dVertex
 10
-19.0143125
 20
-8.392833333333
 30
0.0
 70
           8
  0
VERTEX
  5
70
100
AcDbEntity
  8
0
  6
Continuous
 62
           7
100
AcDbVertex
100
AcDb2dVertex
 10
-18.9541015625
 20
-8.4296875
 30
0.0
 70
           8
  0
VERTEX
  5
71
100
AcDbEntity
  8
0
  6
Continuous
 62
           7
100
AcDbVertex
100
AcDb2dVertex
 10
-18.896
 20
-8.464666666667
 30
0.0
 70
           8
  0
VERTEX
  5
72
100
AcDbEntity
  8
0
  6
Continuous
 62
           7
100
AcDbVertex
100
AcDb2dVertex
 10
-18.8401484375
 20
-8.497645833333
 30
0.0
 70
           8
  0
VERTEX
  5
73
100
AcDbEntity
  8
0
  6
Continuous
 62
           7
100
AcDbVertex
100
AcDb2dVertex
 10
-18.7866875
 20
-8.5285
 30
0.0
 70
           8
  0
VERTEX
  5
74
100
AcDbEntity
  8
0
  6
Continuous
 62
           7
100
AcDbVertex
100
AcDb2dVertex
 10
-18.6875
 20
-8.583333333333
 30
0.0
 70
           8
  0
VERTEX
  5
75
100
AcDbEntity
  8
0
  6
Continuous
 62
           7
100
AcDbVertex
100
AcDb2dVertex
 10
-18.6420078125
 20
-8.607104166667
 30
0.0
 70
           8
  0
VERTEX
  5
76
100
AcDbEntity
  8
0
  6
Continuous
 62
           7
100
AcDbVertex
100
AcDb2dVertex
 10
-18.5991875
 20
-8.6285
 30
0.0
 70
           8
  0
VERTEX
  5
77
100
AcDbEntity
  8
0
  6
Continuous
 62
           7
100
AcDbVertex
100
AcDb2dVertex
 10
-18.5588984375
 20
-8.647645833333
 30
0.0
 70
           8
  0
VERTEX
  5
78
100
AcDbEntity
  8
0
  6
Continuous
 62
           7
100
AcDbVertex
100
AcDb2dVertex
 10
-18.521
 20
-8.664666666667
 30
0.0
 70
           8
  0
VERTEX
  5
79
100
AcDbEntity
  8
0
  6
Continuous
 62
           7
100
AcDbVertex
100
AcDb2dVertex
 10
-18.4853515625
 20
-8.6796875
 30
0.0
 70
           8
  0
VERTEX
  5
7A
100
AcDbEntity
  8
0
  6
Continuous
 62
           7
100
AcDbVertex
100
AcDb2dVertex
 10
-18.4518125
 20
-8.692833333333
 30
0.0
 70
           8
  0
VERTEX
  5
7B
100
AcDbEntity
  8
0
  6
Continuous
 62
           7
100
AcDbVertex
100
AcDb2dVertex
 10
-18.4202421875
 20
-8.704229166667
 30
0.0
 70
           8
  0
VERTEX
  5
7C
100
AcDbEntity
  8
0
  6
Continuous
 62
           7
100
AcDbVertex
100
AcDb2dVertex
 10
-18.3905
 20
-8.714
 30
0.0
 70
           8
  0
VERTEX
  5
7D
100
AcDbEntity
  8
0
  6
Continuous
 62
           7
100
AcDbVertex
100
AcDb2dVertex
 10
-18.3624453125
 20
-8.722270833333
 30
0.0
 70
           8
  0
VERTEX
  5
7E
100
AcDbEntity
  8
0
  6
Continuous
 62
           7
100
AcDbVertex
100
AcDb2dVertex
 10
-18.3359375
 20
-8.729166666667
 30
0.0
 70
           8
  0
VERTEX
  5
7F
100
AcDbEntity
  8
0
  6
Continuous
 62
           7
100
AcDbVertex
100
AcDb2dVertex
 10
-18.3108359375
 20
-8.7348125
 30
0.0
 70
           8
  0
VERTEX
  5
80
100
AcDbEntity
  8
0
  6
Continuous
 62
           7
100
AcDbVertex
100
AcDb2dVertex
 10
-18.287
 20
-8.739333333333
 30
0.0
 70
           8
  0
VERTEX
  5
81
100
AcDbEntity
  8
0
  6
Continuous
 62
           7
100
AcDbVertex
100
AcDb2dVertex
 10
-18.2642890625
 20
-8.742854166667
 30
0.0
 70
           8
  0
VERTEX
  5
82
100
AcDbEntity
  8
0
  6
Continuous
 62
           7
100
AcDbVertex
100
AcDb2dVertex
 10
-18.2425625
 20
-8.7455
 30
0.0
 70
           8
  0
VERTEX
  5
83
100
AcDbEntity
  8
0
  6
Continuous
 62
           7
100
AcDbVertex
100
AcDb2dVertex
 10
-18.2216796875
 20
-8.747395833333
 30
0.0
 70
           8
  0
VERTEX
  5
84
100
AcDbEntity
  8
0
  6
Continuous
 62
           7
100
AcDbVertex
100
AcDb2dVertex
 10
-18.2015
 20
-8.748666666667
 30
0.0
 70
           8
  0
VERTEX
  5
85
100
AcDbEntity
  8
0
  6
Continuous
 62
           7
100
AcDbVertex
100
AcDb2dVertex
 10
-18.1818828125
 20
-8.7494375
 30
0.0
 70
           8
  0
VERTEX
  5
86
100
AcDbEntity
  8
0
  6
Continuous
 62
           7
100
AcDbVertex
100
AcDb2dVertex
 10
-18.1626875
 20
-8.749833333333
 30
0.0
 70
           8
  0
VERTEX
  5
87
100
AcDbEntity
  8
0
  6
Continuous
 62
           7
100
AcDbVertex
100
AcDb2dVertex
 10
-18.125
 20
-8.75
 30
0.0
 70
           8
  0
SEQEND
  5
88
100
AcDbEntity
  8
0
  6
Continuous
 62
           7
  0
POLYLINE
  5
89
100
AcDbEntity
  8
0
370
           0
  6
Continuous
 62
           7
100
AcDb2dPolyline
 66
           1
 10
0.0
 20
0.0
 30
0.0
 70
         132
 75
           6
1001
TCAD
1000
TCW_CUSTOM_DATA
1002
{
1000
#$AUX@_ToolInfo Properties
1070
           8
1000
Insert^JCurve^JSpline@Curve Spline
1002
}
  0
VERTEX
  5
8A
100
AcDbEntity
  8
0
  6
Continuous
 62
           7
100
AcDbVertex
100
AcDb2dVertex
 10
0.0
 20
-7.75
 30
0.0
 70
          16
  0
VERTEX
  5
8B
100
AcDbEntity
  8
0
  6
Continuous
 62
           7
100
AcDbVertex
100
AcDb2dVertex
 10
-1.5
 20
-8.75
 30
0.0
 70
          16
  0
VERTEX
  5
8C
100
AcDbEntity
  8
0
  6
Continuous
 62
           7
100
AcDbVertex
100
AcDb2dVertex
 10
-1.875
 20
-8.75
 30
0.0
 70
          16
  0
VERTEX
  5
8D
100
AcDbEntity
  8
0
  6
Continuous
 62
           7
100
AcDbVertex
100
AcDb2dVertex
 10
0.0
 20
-7.75
 30
0.0
 70
           8
  0
VERTEX
  5
8E
100
AcDbEntity
  8
0
  6
Continuous
 62
           7
100
AcDbVertex
100
AcDb2dVertex
 10
-0.0749765625
 20
-7.799979166667
 30
0.0
 70
           8
  0
VERTEX
  5
8F
100
AcDbEntity
  8
0
  6
Continuous
 62
           7
100
AcDbVertex
100
AcDb2dVertex
 10
-0.1498125
 20
-7.849833333333
 30
0.0
 70
           8
  0
VERTEX
  5
90
100
AcDbEntity
  8
0
  6
Continuous
 62
           7
100
AcDbVertex
100
AcDb2dVertex
 10
-0.2243671875
 20
-7.8994375
 30
0.0
 70
           8
  0
VERTEX
  5
91
100
AcDbEntity
  8
0
  6
Continuous
 62
           7
100
AcDbVertex
100
AcDb2dVertex
 10
-0.2985
 20
-7.948666666667
 30
0.0
 70
           8
  0
VERTEX
  5
92
100
AcDbEntity
  8
0
  6
Continuous
 62
           7
100
AcDbVertex
100
AcDb2dVertex
 10
-0.3720703125
 20
-7.997395833333
 30
0.0
 70
           8
  0
VERTEX
  5
93
100
AcDbEntity
  8
0
  6
Continuous
 62
           7
100
AcDbVertex
100
AcDb2dVertex
 10
-0.4449375
 20
-8.0455
 30
0.0
 70
           8
  0
VERTEX
  5
94
100
AcDbEntity
  8
0
  6
Continuous
 62
           7
100
AcDbVertex
100
AcDb2dVertex
 10
-0.5169609375
 20
-8.092854166667
 30
0.0
 70
           8
  0
VERTEX
  5
95
100
AcDbEntity
  8
0
  6
Continuous
 62
           7
100
AcDbVertex
100
AcDb2dVertex
 10
-0.588
 20
-8.139333333333
 30
0.0
 70
           8
  0
VERTEX
  5
96
100
AcDbEntity
  8
0
  6
Continuous
 62
           7
100
AcDbVertex
100
AcDb2dVertex
 10
-0.6579140625
 20
-8.1848125
 30
0.0
 70
           8
  0
VERTEX
  5
97
100
AcDbEntity
  8
0
  6
Continuous
 62
           7
100
AcDbVertex
100
AcDb2dVertex
 10
-0.7265625
 20
-8.229166666667
 30
0.0
 70
           8
  0
VERTEX
  5
98
100
AcDbEntity
  8
0
  6
Continuous
 62
           7
100
AcDbVertex
100
AcDb2dVertex
 10
-0.7938046875
 20
-8.272270833333
 30
0.0
 70
           8
  0
VERTEX
  5
99
100
AcDbEntity
  8
0
  6
Continuous
 62
           7
100
AcDbVertex
100
AcDb2dVertex
 10
-0.8595
 20
-8.314
 30
0.0
 70
           8
  0
VERTEX
  5
9A
100
AcDbEntity
  8
0
  6
Continuous
 62
           7
100
AcDbVertex
100
AcDb2dVertex
 10
-0.9235078125
 20
-8.354229166667
 30
0.0
 70
           8
  0
VERTEX
  5
9B
100
AcDbEntity
  8
0
  6
Continuous
 62
           7
100
AcDbVertex
100
AcDb2dVertex
 10
-0.9856875
 20
-8.392833333333
 30
0.0
 70
           8
  0
VERTEX
  5
9C
100
AcDbEntity
  8
0
  6
Continuous
 62
           7
100
AcDbVertex
100
AcDb2dVertex
 10
-1.0458984375
 20
-8.4296875
 30
0.0
 70
           8
  0
VERTEX
  5
9D
100
AcDbEntity
  8
0
  6
Continuous
 62
           7
100
AcDbVertex
100
AcDb2dVertex
 10
-1.104
 20
-8.464666666667
 30
0.0
 70
           8
  0
VERTEX
  5
9E
100
AcDbEntity
  8
0
  6
Continuous
 62
           7
100
AcDbVertex
100
AcDb2dVertex
 10
-1.1598515625
 20
-8.497645833333
 30
0.0
 70
           8
  0
VERTEX
  5
9F
100
AcDbEntity
  8
0
  6
Continuous
 62
           7
100
AcDbVertex
100
AcDb2dVertex
 10
-1.2133125
 20
-8.5285
 30
0.0
 70
           8
  0
VERTEX
  5
A0
100
AcDbEntity
  8
0
  6
Continuous
 62
           7
100
AcDbVertex
100
AcDb2dVertex
 10
-1.3125
 20
-8.583333333333
 30
0.0
 70
           8
  0
VERTEX
  5
A1
100
AcDbEntity
  8
0
  6
Continuous
 62
           7
100
AcDbVertex
100
AcDb2dVertex
 10
-1.3579921875
 20
-8.607104166667
 30
0.0
 70
           8
  0
VERTEX
  5
A2
100
AcDbEntity
  8
0
  6
Continuous
 62
           7
100
AcDbVertex
100
AcDb2dVertex
 10
-1.4008125
 20
-8.6285
 30
0.0
 70
           8
  0
VERTEX
  5
A3
100
AcDbEntity
  8
0
  6
Continuous
 62
           7
100
AcDbVertex
100
AcDb2dVertex
 10
-1.4411015625
 20
-8.647645833333
 30
0.0
 70
           8
  0
VERTEX
  5
A4
100
AcDbEntity
  8
0
  6
Continuous
 62
           7
100
AcDbVertex
100
AcDb2dVertex
 10
-1.479
 20
-8.664666666667
 30
0.0
 70
           8
  0
VERTEX
  5
A5
100
AcDbEntity
  8
0
  6
Continuous
 62
           7
100
AcDbVertex
100
AcDb2dVertex
 10
-1.5146484375
 20
-8.6796875
 30
0.0
 70
           8
  0
VERTEX
  5
A6
100
AcDbEntity
  8
0
  6
Continuous
 62
           7
100
AcDbVertex
100
AcDb2dVertex
 10
-1.5481875
 20
-8.692833333333
 30
0.0
 70
           8
  0
VERTEX
  5
A7
100
AcDbEntity
  8
0
  6
Continuous
 62
           7
100
AcDbVertex
100
AcDb2dVertex
 10
-1.5797578125
 20
-8.704229166667
 30
0.0
 70
           8
  0
VERTEX
  5
A8
100
AcDbEntity
  8
0
  6
Continuous
 62
           7
100
AcDbVertex
100
AcDb2dVertex
 10
-1.6095
 20
-8.714
 30
0.0
 70
           8
  0
VERTEX
  5
A9
100
AcDbEntity
  8
0
  6
Continuous
 62
           7
100
AcDbVertex
100
AcDb2dVertex
 10
-1.6375546875
 20
-8.722270833333
 30
0.0
 70
           8
  0
VERTEX
  5
AA
100
AcDbEntity
  8
0
  6
Continuous
 62
           7
100
AcDbVertex
100
AcDb2dVertex
 10
-1.6640625
 20
-8.729166666667
 30
0.0
 70
           8
  0
VERTEX
  5
AB
100
AcDbEntity
  8
0
  6
Continuous
 62
           7
100
AcDbVertex
100
AcDb2dVertex
 10
-1.6891640625
 20
-8.7348125
 30
0.0
 70
           8
  0
VERTEX
  5
AC
100
AcDbEntity
  8
0
  6
Continuous
 62
           7
100
AcDbVertex
100
AcDb2dVertex
 10
-1.713
 20
-8.739333333333
 30
0.0
 70
           8
  0
VERTEX
  5
AD
100
AcDbEntity
  8
0
  6
Continuous
 62
           7
100
AcDbVertex
100
AcDb2dVertex
 10
-1.7357109375
 20
-8.742854166667
 30
0.0
 70
           8
  0
VERTEX
  5
AE
100
AcDbEntity
  8
0
  6
Continuous
 62
           7
100
AcDbVertex
100
AcDb2dVertex
 10
-1.7574375
 20
-8.7455
 30
0.0
 70
           8
  0
VERTEX
  5
AF
100
AcDbEntity
  8
0
  6
Continuous
 62
           7
100
AcDbVertex
100
AcDb2dVertex
 10
-1.7783203125
 20
-8.747395833333
 30
0.0
 70
           8
  0
VERTEX
  5
B0
100
AcDbEntity
  8
0
  6
Continuous
 62
           7
100
AcDbVertex
100
AcDb2dVertex
 10
-1.7985
 20
-8.748666666667
 30
0.0
 70
           8
  0
VERTEX
  5
B1
100
AcDbEntity
  8
0
  6
Continuous
 62
           7
100
AcDbVertex
100
AcDb2dVertex
 10
-1.8181171875
 20
-8.7494375
 30
0.0
 70
           8
  0
VERTEX
  5
B2
100
AcDbEntity
  8
0
  6
Continuous
 62
           7
100
AcDbVertex
100
AcDb2dVertex
 10
-1.8373125
 20
-8.749833333333
 30
0.0
 70
           8
  0
VERTEX
  5
B3
100
AcDbEntity
  8
0
  6
Continuous
 62
           7
100
AcDbVertex
100
AcDb2dVertex
 10
-1.875
 20
-8.75
 30
0.0
 70
           8
  0
SEQEND
  5
B4
100
AcDbEntity
  8
0
  6
Continuous
 62
           7
  0
LINE
  5
B5
100
AcDbEntity
  8
Exterior View
370
           0
  6
Continuous
 62
           7
100
AcDbLine
 10
-1.875
 20
-8.75
 30
0.0
 11
-18.125
 21
-8.75
 31
0.0
1001
TCAD
1000
TCW_CUSTOM_DATA
1002
{
1000
#$AUX@_ToolInfo Properties
1070
           8
1000
Insert^JLine^JSingle@Line Single
1002
}
  0
LINE
  5
B6
100
AcDbEntity
  8
Exterior View
370
           0
  6
Continuous
 62
           7
100
AcDbLine
 10
0.0
 20
3.0
 30
0.0
 11
-20.0
 21
3.0
 31
0.0
1001
TCAD
1000
TCW_CUSTOM_DATA
1002
{
1000
#$AUX@_ToolInfo Properties
1070
           8
1000
Insert^JLine^JSingle@Line Single
1002
}
  0
LINE
  5
B7
100
AcDbEntity
  8
Exterior View
370
           0
  6
Continuous
 62
           7
100
AcDbLine
 10
-20.0
 20
3.0
 30
0.0
 11
-20.0
 21
14.75
 31
0.0
1001
TCAD
1000
TCW_CUSTOM_DATA
1002
{
1000
#$AUX@_ToolInfo Properties
1070
           8
1000
Insert^JLine^JPerpendicular@Line Perpendicular
1002
}
  0
LINE
  5
B8
100
AcDbEntity
  8
Exterior View
370
           0
  6
Continuous
 62
           7
100
AcDbLine
 10
-20.0
 20
14.75
 30
0.0
 11
0.0
 21
14.75
 31
0.0
1001
TCAD
1000
TCW_CUSTOM_DATA
1002
{
1000
#$AUX@_ToolInfo Properties
1070
           8
1000
Insert^JLine^JPerpendicular@Line Perpendicular
1002
}
  0
LINE
  5
B9
100
AcDbEntity
  8
Exterior View
370
           0
  6
Continuous
 62
           7
100
AcDbLine
 10
0.0
 20
3.0
 30
0.0
 11
0.0
 21
14.75
 31
0.0
1001
TCAD
1000
TCW_CUSTOM_DATA
1002
{
1000
#$AUX@_ToolInfo Properties
1070
           8
1000
Insert^JLine^JPerpendicular@Line Perpendicular
1002
}
  0
LINE
  5
BA
100
AcDbEntity
  8
Exterior View
370
           0
  6
Continuous
 62
           7
100
AcDbLine
 10
-3.0
 20
6.25
 30
0.0
 11
-3.0
 21
11.5
 31
0.0
1001
TCAD
1000
TCW_CUSTOM_DATA
1002
{
1000
#$AUX@_ToolInfo Properties
1070
           8
1000
Insert^JLine^JPerpendicular@Line Perpendicular
1002
}
  0
LINE
  5
BB
100
AcDbEntity
  8
Exterior View
370
           0
  6
Continuous
 62
           7
100
AcDbLine
 10
-3.0
 20
11.5
 30
0.0
 11
-5.75
 21
11.5
 31
0.0
1001
TCAD
1000
TCW_CUSTOM_DATA
1002
{
1000
#$AUX@_ToolInfo Properties
1070
           8
1000
Insert^JLine^JPerpendicular@Line Perpendicular
1002
}
  0
LINE
  5
BC
100
AcDbEntity
  8
Exterior View
370
           0
  6
Continuous
 62
           7
100
AcDbLine
 10
-3.0
 20
6.25
 30
0.0
 11
-5.75
 21
6.25
 31
0.0
1001
TCAD
1000
TCW_CUSTOM_DATA
1002
{
1000
#$AUX@_ToolInfo Properties
1070
           8
1000
Insert^JLine^JPerpendicular@Line Perpendicular
1002
}
  0
LINE
  5
BD
100
AcDbEntity
  8
Hidden
370
           0
  6
HIDDEN
 62
           7
 48
0.20000000298
100
AcDbLine
 10
-5.0
 20
11.5
 30
0.0
 11
-5.0
 21
6.25
 31
0.0
1001
TCAD
1000
TCW_CUSTOM_DATA
1002
{
1000
#$AUX@_ToolInfo Properties
1070
           8
1000
Insert^JLine^JPerpendicular@Line Perpendicular
1002
}
  0
LINE
  5
BE
100
AcDbEntity
  8
Exterior View
370
           0
  6
Continuous
 62
           7
100
AcDbLine
 10
-3.0
 20
6.875
 30
0.0
 11
-2.0
 21
6.875
 31
0.0
1001
TCAD
1000
TCW_CUSTOM_DATA
1002
{
1000
#$AUX@_ToolInfo Properties
1070
           8
1000
Insert^JLine^JPerpendicular@Line Perpendicular
1002
}
  0
LINE
  5
BF
100
AcDbEntity
  8
Exterior View
370
           0
  6
Continuous
 62
           7
100
AcDbLine
 10
-3.0
 20
10.875
 30
0.0
 11
-2.0
 21
10.875
 31
0.0
1001
TCAD
1000
TCW_CUSTOM_DATA
1002
{
1000
#$AUX@_ToolInfo Properties
1070
           8
1000
Insert^JLine^JPerpendicular@Line Perpendicular
1002
}
  0
LINE
  5
C0
100
AcDbEntity
  8
Exterior View
370
           0
  6
Continuous
 62
           7
100
AcDbLine
 10
-2.0
 20
10.875
 30
0.0
 11
-2.0
 21
11.0
 31
0.0
1001
TCAD
1000
TCW_CUSTOM_DATA
1002
{
1000
#$AUX@_ToolInfo Properties
1070
           8
1000
Insert^JLine^JPerpendicular@Line Perpendicular
1002
}
  0
LINE
  5
C1
100
AcDbEntity
  8
Exterior View
370
           0
  6
Continuous
 62
           7
100
AcDbLine
 10
-2.0
 20
6.875
 30
0.0
 11
-2.0
 21
6.75
 31
0.0
1001
TCAD
1000
TCW_CUSTOM_DATA
1002
{
1000
#$AUX@_ToolInfo Properties
1070
           8
1000
Insert^JLine^JPerpendicular@Line Perpendicular
1002
}
  0
LINE
  5
C2
100
AcDbEntity
  8
Exterior View
370
           0
  6
Continuous
 62
           7
100
AcDbLine
 10
-3.0
 20
11.0
 30
0.0
 11
-2.0
 21
11.0
 31
0.0
1001
TCAD
1000
TCW_CUSTOM_DATA
1002
{
1000
#$AUX@_ToolInfo Properties
1070
           8
1000
Insert^JLine^JPerpendicular@Line Perpendicular
1002
}
  0
LINE
  5
C3
100
AcDbEntity
  8
Exterior View
370
           0
  6
Continuous
 62
           7
100
AcDbLine
 10
-3.0
 20
6.75
 30
0.0
 11
-2.0
 21
6.75
 31
0.0
1001
TCAD
1000
TCW_CUSTOM_DATA
1002
{
1000
#$AUX@_ToolInfo Properties
1070
           8
1000
Insert^JLine^JPerpendicular@Line Perpendicular
1002
}
  0
LINE
  5
C4
100
AcDbEntity
  8
Exterior View
370
           0
  6
Continuous
 62
           7
100
AcDbLine
 10
-2.0
 20
11.0
 30
0.0
 11
0.0
 21
11.0
 31
0.0
1001
TCAD
1000
TCW_CUSTOM_DATA
1002
{
1000
#$AUX@_ToolInfo Properties
1070
           8
1000
Insert^JLine^JPerpendicular@Line Perpendicular
1002
}
  0
LINE
  5
C5
100
AcDbEntity
  8
Exterior View
370
           0
  6
Continuous
 62
           7
100
AcDbLine
 10
-2.0
 20
10.875
 30
0.0
 11
0.0
 21
10.875
 31
0.0
1001
TCAD
1000
TCW_CUSTOM_DATA
1002
{
1000
#$AUX@_ToolInfo Properties
1070
           8
1000
Insert^JLine^JPerpendicular@Line Perpendicular
1002
}
  0
LINE
  5
C6
100
AcDbEntity
  8
Exterior View
370
           0
  6
Continuous
 62
           7
100
AcDbLine
 10
-2.0
 20
6.875
 30
0.0
 11
0.0
 21
6.875
 31
0.0
1001
TCAD
1000
TCW_CUSTOM_DATA
1002
{
1000
#$AUX@_ToolInfo Properties
1070
           8
1000
Insert^JLine^JPerpendicular@Line Perpendicular
1002
}
  0
LINE
  5
C7
100
AcDbEntity
  8
Exterior View
370
           0
  6
Continuous
 62
           7
100
AcDbLine
 10
-2.0
 20
6.75
 30
0.0
 11
0.0
 21
6.75
 31
0.0
1001
TCAD
1000
TCW_CUSTOM_DATA
1002
{
1000
#$AUX@_ToolInfo Properties
1070
           8
1000
Insert^JLine^JPerpendicular@Line Perpendicular
1002
}
  0
LINE
  5
C8
100
AcDbEntity
  8
Exterior View
370
           0
  6
Continuous
 62
           7
100
AcDbLine
 10
-5.75
 20
11.5
 30
0.0
 11
-5.75
 21
6.25
 31
0.0
1001
TCAD
1000
TCW_CUSTOM_DATA
1002
{
1000
#$AUX@_ToolInfo Properties
1070
           8
1000
Insert^JLine^JPerpendicular@Line Perpendicular
1002
}
  0
LINE
  5
C9
100
AcDbEntity
  8
Exterior View
370
           0
  6
Continuous
 62
           7
100
AcDbLine
 10
-8.0
 20
10.125
 30
0.0
 11
-8.0
 21
7.625
 31
0.0
1001
TCAD
1000
TCW_CUSTOM_DATA
1002
{
1000
#$AUX@_ToolInfo Properties
1070
           8
1000
Insert^JLine^JPerpendicular@Line Perpendicular
1002
}
  0
LINE
  5
CA
100
AcDbEntity
  8
Exterior View
370
           0
  6
Continuous
 62
           7
100
AcDbLine
 10
-8.0
 20
7.625
 30
0.0
 11
-8.125
 21
7.625
 31
0.0
1001
TCAD
1000
TCW_CUSTOM_DATA
1002
{
1000
#$AUX@_ToolInfo Properties
1070
           8
1000
Insert^JLine^JPerpendicular@Line Perpendicular
1002
}
  0
LINE
  5
CB
100
AcDbEntity
  8
Exterior View
370
           0
  6
Continuous
 62
           7
100
AcDbLine
 10
-8.0
 20
10.125
 30
0.0
 11
-8.125
 21
10.125
 31
0.0
1001
TCAD
1000
TCW_CUSTOM_DATA
1002
{
1000
#$AUX@_ToolInfo Properties
1070
           8
1000
Insert^JLine^JPerpendicular@Line Perpendicular
1002
}
  0
LINE
  5
CC
100
AcDbEntity
  8
Exterior View
370
           0
  6
Continuous
 62
           7
100
AcDbLine
 10
-8.125
 20
7.625
 30
0.0
 11
-8.125
 21
10.125
 31
0.0
1001
TCAD
1000
TCW_CUSTOM_DATA
1002
{
1000
#$AUX@_ToolInfo Properties
1070
           8
1000
Insert^JLine^JPerpendicular@Line Perpendicular
1002
}
  0
LINE
  5
CD
100
AcDbEntity
  8
Exterior View
370
           0
  6
Continuous
 62
           7
100
AcDbLine
 10
-8.125
 20
10.0
 30
0.0
 11
-9.25
 21
10.0
 31
0.0
1001
TCAD
1000
TCW_CUSTOM_DATA
1002
{
1000
#$AUX@_ToolInfo Properties
1070
           8
1000
Insert^JLine^JPerpendicular@Line Perpendicular
1002
}
  0
LINE
  5
CE
100
AcDbEntity
  8
Exterior View
370
           0
  6
Continuous
 62
           7
100
AcDbLine
 10
-8.125
 20
9.875
 30
0.0
 11
-9.25
 21
9.875
 31
0.0
1001
TCAD
1000
TCW_CUSTOM_DATA
1002
{
1000
#$AUX@_ToolInfo Properties
1070
           8
1000
Insert^JLine^JPerpendicular@Line Perpendicular
1002
}
  0
LINE
  5
CF
100
AcDbEntity
  8
Exterior View
370
           0
  6
Continuous
 62
           7
100
AcDbLine
 10
-8.0
 20
10.0
 30
0.0
 11
-6.875
 21
10.0
 31
0.0
1001
TCAD
1000
TCW_CUSTOM_DATA
1002
{
1000
#$AUX@_ToolInfo Properties
1070
           8
1000
Insert^JLine^JPerpendicular@Line Perpendicular
1002
}
  0
LINE
  5
D0
100
AcDbEntity
  8
Exterior View
370
           0
  6
Continuous
 62
           7
100
AcDbLine
 10
-8.0
 20
9.875
 30
0.0
 11
-6.875
 21
9.875
 31
0.0
1001
TCAD
1000
TCW_CUSTOM_DATA
1002
{
1000
#$AUX@_ToolInfo Properties
1070
           8
1000
Insert^JLine^JPerpendicular@Line Perpendicular
1002
}
  0
LINE
  5
D1
100
AcDbEntity
  8
Exterior View
370
           0
  6
Continuous
 62
           7
100
AcDbLine
 10
-8.0
 20
7.875
 30
0.0
 11
-6.875
 21
7.875
 31
0.0
1001
TCAD
1000
TCW_CUSTOM_DATA
1002
{
1000
#$AUX@_ToolInfo Properties
1070
           8
1000
Insert^JLine^JPerpendicular@Line Perpendicular
1002
}
  0
LINE
  5
D2
100
AcDbEntity
  8
Exterior View
370
           0
  6
Continuous
 62
           7
100
AcDbLine
 10
-8.0
 20
7.75
 30
0.0
 11
-6.875
 21
7.75
 31
0.0
1001
TCAD
1000
TCW_CUSTOM_DATA
1002
{
1000
#$AUX@_ToolInfo Properties
1070
           8
1000
Insert^JLine^JPerpendicular@Line Perpendicular
1002
}
  0
LINE
  5
D3
100
AcDbEntity
  8
Exterior View
370
           0
  6
Continuous
 62
           7
100
AcDbLine
 10
-8.125
 20
7.875
 30
0.0
 11
-9.25
 21
7.875
 31
0.0
1001
TCAD
1000
TCW_CUSTOM_DATA
1002
{
1000
#$AUX@_ToolInfo Properties
1070
           8
1000
Insert^JLine^JPerpendicular@Line Perpendicular
1002
}
  0
LINE
  5
D4
100
AcDbEntity
  8
Exterior View
370
           0
  6
Continuous
 62
           7
100
AcDbLine
 10
-8.125
 20
7.75
 30
0.0
 11
-9.25
 21
7.75
 31
0.0
1001
TCAD
1000
TCW_CUSTOM_DATA
1002
{
1000
#$AUX@_ToolInfo Properties
1070
           8
1000
Insert^JLine^JPerpendicular@Line Perpendicular
1002
}
  0
LINE
  5
D5
100
AcDbEntity
  8
Exterior View
370
           0
  6
Continuous
 62
           7
100
AcDbLine
 10
-9.25
 20
7.875
 30
0.0
 11
-9.25
 21
7.75
 31
0.0
1001
TCAD
1000
TCW_CUSTOM_DATA
1002
{
1000
#$AUX@_ToolInfo Properties
1070
           8
1000
Insert^JLine^JPerpendicular@Line Perpendicular
1002
}
  0
LINE
  5
D6
100
AcDbEntity
  8
Exterior View
370
           0
  6
Continuous
 62
           7
100
AcDbLine
 10
-9.25
 20
9.875
 30
0.0
 11
-9.25
 21
10.0
 31
0.0
1001
TCAD
1000
TCW_CUSTOM_DATA
1002
{
1000
#$AUX@_ToolInfo Properties
1070
           8
1000
Insert^JLine^JPerpendicular@Line Perpendicular
1002
}
  0
LINE
  5
D7
100
AcDbEntity
  8
Exterior View
370
           0
  6
Continuous
 62
           7
100
AcDbLine
 10
-6.875
 20
9.875
 30
0.0
 11
-6.875
 21
10.0
 31
0.0
1001
TCAD
1000
TCW_CUSTOM_DATA
1002
{
1000
#$AUX@_ToolInfo Properties
1070
           8
1000
Insert^JLine^JPerpendicular@Line Perpendicular
1002
}
  0
LINE
  5
D8
100
AcDbEntity
  8
Exterior View
370
           0
  6
Continuous
 62
           7
100
AcDbLine
 10
-6.875
 20
7.75
 30
0.0
 11
-6.875
 21
7.875
 31
0.0
1001
TCAD
1000
TCW_CUSTOM_DATA
1002
{
1000
#$AUX@_ToolInfo Properties
1070
           8
1000
Insert^JLine^JPerpendicular@Line Perpendicular
1002
}
  0
LINE
  5
D9
100
AcDbEntity
  8
Exterior View
370
           0
  6
Continuous
 62
           7
100
AcDbLine
 10
-6.0
 20
6.375
 30
0.0
 11
-6.0
 21
9.125
 31
0.0
1001
TCAD
1000
TCW_CUSTOM_DATA
1002
{
1000
#$AUX@_ToolInfo Properties
1070
           8
1000
Insert^JLine^JSingle@Line Single
1002
}
  0
LINE
  5
DA
100
AcDbEntity
  8
Exterior View
370
           0
  6
Continuous
 62
           7
100
AcDbLine
 10
-7.5
 20
8.375
 30
0.0
 11
-7.5
 21
9.375
 31
0.0
1001
TCAD
1000
TCW_CUSTOM_DATA
1002
{
1000
#$AUX@_ToolInfo Properties
1070
           8
1000
Insert^JLine^JSingle@Line Single
1002
}
  0
LINE
  5
DB
100
AcDbEntity
  8
Exterior View
370
           0
  6
Continuous
 62
           7
100
AcDbLine
 10
-7.5
 20
9.25
 30
0.0
 11
-6.75
 21
9.25
 31
0.0
1001
TCAD
1000
TCW_CUSTOM_DATA
1002
{
1000
#$AUX@_ToolInfo Properties
1070
           8
1000
Insert^JLine^JSingle@Line Single
1002
}
  0
LINE
  5
DC
100
AcDbEntity
  8
Exterior View
370
           0
  6
Continuous
 62
           7
100
AcDbLine
 10
-7.5
 20
8.5
 30
0.0
 11
-6.75
 21
8.5
 31
0.0
1001
TCAD
1000
TCW_CUSTOM_DATA
1002
{
1000
#$AUX@_ToolInfo Properties
1070
           8
1000
Insert^JLine^JSingle@Line Single
1002
}
  0
LINE
  5
DD
100
AcDbEntity
  8
Exterior View
370
           0
  6
Continuous
 62
           7
100
AcDbLine
 10
-7.5
 20
8.375
 30
0.0
 11
-8.0
 21
8.375
 31
0.0
1001
TCAD
1000
TCW_CUSTOM_DATA
1002
{
1000
#$AUX@_ToolInfo Properties
1070
           8
1000
Insert^JLine^JSingle@Line Single
1002
}
  0
LINE
  5
DE
100
AcDbEntity
  8
Exterior View
370
           0
  6
Continuous
 62
           7
100
AcDbLine
 10
-7.5
 20
9.375
 30
0.0
 11
-8.0
 21
9.375
 31
0.0
1001
TCAD
1000
TCW_CUSTOM_DATA
1002
{
1000
#$AUX@_ToolInfo Properties
1070
           8
1000
Insert^JLine^JSingle@Line Single
1002
}
  0
CIRCLE
  5
DF
100
AcDbEntity
  8
Exterior View
370
           0
  6
Continuous
 62
           7
100
AcDbCircle
 10
-7.125
 20
8.875
 30
0.0
 40
0.375
1001
TCAD
1000
TCW_CUSTOM_DATA
1002
{
1000
#$AUX@_ToolInfo Properties
1070
           8
1000
Insert^JCircle^JCenterAndPoint@Circle CenterAndPoint
1002
}
  0
LINE
  5
E0
100
AcDbEntity
  8
Exterior View
370
           0
  6
Continuous
 62
           7
100
AcDbLine
 10
-6.75
 20
8.5
 30
0.0
 11
-6.75
 21
9.25
 31
0.0
1001
TCAD
1000
TCW_CUSTOM_DATA
1002
{
1000
#$AUX@_ToolInfo Properties
1070
           8
1000
Insert^JLine^JSingle@Line Single
1002
}
  0
LINE
  5
E1
100
AcDbEntity
  8
Exterior View
370
           0
  6
Continuous
 62
           7
100
AcDbLine
 10
-6.25
 20
11.375
 30
0.0
 11
-6.25
 21
8.6875
 31
0.0
1001
TCAD
1000
TCW_CUSTOM_DATA
1002
{
1000
#$AUX@_ToolInfo Properties
1070
           8
1000
Insert^JLine^JSingle@Line Single
1002
}
  0
LINE
  5
E2
100
AcDbEntity
  8
Exterior View
370
           0
  6
Continuous
 62
           7
100
AcDbLine
 10
-6.0625
 20
6.375
 30
0.0
 11
-6.0
 21
6.375
 31
0.0
1001
TCAD
1000
TCW_CUSTOM_DATA
1002
{
1000
#$AUX@_ToolInfo Properties
1070
           8
1000
Insert^JLine^JSingle@Line Single
1002
}
  0
LINE
  5
E3
100
AcDbEntity
  8
Exterior View
370
           0
  6
Continuous
 62
           7
100
AcDbLine
 10
-6.25
 20
11.375
 30
0.0
 11
-6.1875
 21
11.375
 31
0.0
1001
TCAD
1000
TCW_CUSTOM_DATA
1002
{
1000
#$AUX@_ToolInfo Properties
1070
           8
1000
Insert^JLine^JSingle@Line Single
1002
}
  0
LINE
  5
E4
100
AcDbEntity
  8
Exterior View
370
           0
  6
Continuous
 62
           7
100
AcDbLine
 10
-6.75
 20
9.0625
 30
0.0
 11
-6.25
 21
9.0625
 31
0.0
1001
TCAD
1000
TCW_CUSTOM_DATA
1002
{
1000
#$AUX@_ToolInfo Properties
1070
           8
1000
Insert^JLine^JSingle@Line Single
1002
}
  0
LINE
  5
E5
100
AcDbEntity
  8
Exterior View
370
           0
  6
Continuous
 62
           7
100
AcDbLine
 10
-6.75
 20
8.6875
 30
0.0
 11
-6.25
 21
8.6875
 31
0.0
1001
TCAD
1000
TCW_CUSTOM_DATA
1002
{
1000
#$AUX@_ToolInfo Properties
1070
           8
1000
Insert^JLine^JSingle@Line Single
1002
}
  0
LINE
  5
E6
100
AcDbEntity
  8
Exterior View
370
           0
  6
Continuous
 62
           7
100
AcDbLine
 10
-9.75
 20
9.3125
 30
0.0
 11
-9.75
 21
8.4375
 31
0.0
1001
TCAD
1000
TCW_CUSTOM_DATA
1002
{
1000
#$AUX@_ToolInfo Properties
1070
           8
1000
Insert^JLine^JSingle@Line Single
1002
}
  0
LINE
  5
E7
100
AcDbEntity
  8
Exterior View
370
           0
  6
Continuous
 62
           7
100
AcDbLine
 10
-9.75
 20
9.3125
 30
0.0
 11
-12.5
 21
9.3125
 31
0.0
  0
LINE
  5
E8
100
AcDbEntity
  8
Exterior View
370
           0
  6
Continuous
 62
           7
100
AcDbLine
 10
-12.5
 20
9.3125
 30
0.0
 11
-12.5
 21
8.4375
 31
0.0
1001
TCAD
1000
TCW_CUSTOM_DATA
1002
{
1000
#$AUX@_ToolInfo Properties
1070
           8
1000
Insert^JLine^JSingle@Line Single
1002
}
  0
LINE
  5
E9
100
AcDbEntity
  8
Exterior View
370
           0
  6
Continuous
 62
           7
100
AcDbLine
 10
-12.5
 20
8.4375
 30
0.0
 11
-9.75
 21
8.4375
 31
0.0
  0
LINE
  5
EA
100
AcDbEntity
  8
Exterior View
370
           0
  6
Continuous
 62
           7
100
AcDbLine
 10
-14.0
 20
7.75
 30
0.0
 11
-11.75
 21
7.75
 31
0.0
1001
TCAD
1000
TCW_CUSTOM_DATA
1002
{
1000
#$AUX@_ToolInfo Properties
1070
           8
1000
Insert^JLine^JSingle@Line Single
1002
}
  0
LINE
  5
EB
100
AcDbEntity
  8
Exterior View
370
           0
  6
Continuous
 62
           7
100
AcDbLine
 10
-14.0
 20
6.5
 30
0.0
 11
-11.75
 21
6.5
 31
0.0
1001
TCAD
1000
TCW_CUSTOM_DATA
1002
{
1000
#$AUX@_ToolInfo Properties
1070
           8
1000
Insert^JLine^JSingle@Line Single
1002
}
  0
LINE
  5
EC
100
AcDbEntity
  8
Exterior View
370
           0
  6
Continuous
 62
           7
100
AcDbLine
 10
-11.75
 20
7.75
 30
0.0
 11
-11.75
 21
6.5
 31
0.0
1001
TCAD
1000
TCW_CUSTOM_DATA
1002
{
1000
#$AUX@_ToolInfo Properties
1070
           8
1000
Insert^JLine^JSingle@Line Single
1002
}
  0
LINE
  5
ED
100
AcDbEntity
  8
Exterior View
370
           0
  6
Continuous
 62
           7
100
AcDbLine
 10
-14.0
 20
7.75
 30
0.0
 11
-14.0
 21
6.5
 31
0.0
1001
TCAD
1000
TCW_CUSTOM_DATA
1002
{
1000
#$AUX@_ToolInfo Properties
1070
           8
1000
Insert^JLine^JSingle@Line Single
1002
}
  0
LINE
  5
EE
100
AcDbEntity
  8
Exterior View
370
           0
  6
Continuous
 62
           7
100
AcDbLine
 10
-12.25
 20
10.25
 30
0.0
 11
-11.0
 21
10.25
 31
0.0
1001
TCAD
1000
TCW_CUSTOM_DATA
1002
{
1000
#$AUX@_ToolInfo Properties
1070
           8
1000
Insert^JLine^JSingle@Line Single
1002
}
  0
LINE
  5
EF
100
AcDbEntity
  8
Exterior View
370
           0
  6
Continuous
 62
           7
100
AcDbLine
 10
-12.25
 20
10.25
 30
0.0
 11
-12.25
 21
12.25
 31
0.0
1001
TCAD
1000
TCW_CUSTOM_DATA
1002
{
1000
#$AUX@_ToolInfo Properties
1070
           8
1000
Insert^JLine^JSingle@Line Single
1002
}
  0
LINE
  5
F0
100
AcDbEntity
  8
Exterior View
370
           0
  6
Continuous
 62
           7
100
AcDbLine
 10
-12.25
 20
12.25
 30
0.0
 11
-11.0
 21
12.25
 31
0.0
1001
TCAD
1000
TCW_CUSTOM_DATA
1002
{
1000
#$AUX@_ToolInfo Properties
1070
           8
1000
Insert^JLine^JSingle@Line Single
1002
}
  0
LINE
  5
F1
100
AcDbEntity
  8
Exterior View
370
           0
  6
Continuous
 62
           7
100
AcDbLine
 10
-11.0
 20
12.25
 30
0.0
 11
-11.0
 21
10.25
 31
0.0
1001
TCAD
1000
TCW_CUSTOM_DATA
1002
{
1000
#$AUX@_ToolInfo Properties
1070
           8
1000
Insert^JLine^JSingle@Line Single
1002
}
  0
LINE
  5
F2
100
AcDbEntity
  8
Exterior View
370
           0
  6
Continuous
 62
           7
100
AcDbLine
 10
-6.0
 20
9.0625
 30
0.0
 11
-6.1875
 21
11.375
 31
0.0
1001
TCAD
1000
TCW_CUSTOM_DATA
1002
{
1000
#$AUX@_ToolInfo Properties
1070
           8
1000
Insert^JLine^JSingle@Line Single
1002
}
  0
LINE
  5
F3
100
AcDbEntity
  8
Exterior View
370
           0
  6
Continuous
 62
           7
100
AcDbLine
 10
-6.25
 20
8.6875
 30
0.0
 11
-6.0625
 21
6.375
 31
0.0
1001
TCAD
1000
TCW_CUSTOM_DATA
1002
{
1000
#$AUX@_ToolInfo Properties
1070
           8
1000
Insert^JLine^JSingle@Line Single
1002
}
  0
LINE
  5
F4
100
AcDbEntity
  8
Exterior View
370
           0
  6
Continuous
 62
           7
100
AcDbLine
 10
-3.0
 20
5.5
 30
0.0
 11
-4.5
 21
5.5
 31
0.0
1001
TCAD
1000
TCW_CUSTOM_DATA
1002
{
1000
#$AUX@_ToolInfo Properties
1070
           8
1000
Insert^JLine^JSingle@Line Single
1002
}
  0
LINE
  5
F5
100
AcDbEntity
  8
Exterior View
370
           0
  6
Continuous
 62
           7
100
AcDbLine
 10
-3.0
 20
6.125
 30
0.0
 11
-3.0
 21
4.125
 31
0.0
1001
TCAD
1000
TCW_CUSTOM_DATA
1002
{
1000
#$AUX@_ToolInfo Properties
1070
           8
1000
Insert^JLine^JSingle@Line Single
1002
}
  0
LINE
  5
F6
100
AcDbEntity
  8
Exterior View
370
           0
  6
Continuous
 62
           7
100
AcDbLine
 10
-4.5
 20
6.125
 30
0.0
 11
-4.5
 21
4.125
 31
0.0
1001
TCAD
1000
TCW_CUSTOM_DATA
1002
{
1000
#$AUX@_ToolInfo Properties
1070
           8
1000
Insert^JLine^JSingle@Line Single
1002
}
  0
LINE
  5
F7
100
AcDbEntity
  8
Exterior View
370
           0
  6
Continuous
 62
           7
100
AcDbLine
 10
-3.0
 20
4.75
 30
0.0
 11
-4.5
 21
4.75
 31
0.0
1001
TCAD
1000
TCW_CUSTOM_DATA
1002
{
1000
#$AUX@_ToolInfo Properties
1070
           8
1000
Insert^JLine^JSingle@Line Single
1002
}
  0
LINE
  5
F8
100
AcDbEntity
  8
Exterior View
370
           0
  6
Continuous
 62
           7
100
AcDbLine
 10
-4.5
 20
6.125
 30
0.0
 11
-4.75
 21
6.125
 31
0.0
1001
TCAD
1000
TCW_CUSTOM_DATA
1002
{
1000
#$AUX@_ToolInfo Properties
1070
           8
1000
Insert^JLine^JSingle@Line Single
1002
}
  0
LINE
  5
F9
100
AcDbEntity
  8
Exterior View
370
           0
  6
Continuous
 62
           7
100
AcDbLine
 10
-4.75
 20
6.125
 30
0.0
 11
-4.75
 21
4.125
 31
0.0
1001
TCAD
1000
TCW_CUSTOM_DATA
1002
{
1000
#$AUX@_ToolInfo Properties
1070
           8
1000
Insert^JLine^JSingle@Line Single
1002
}
  0
LINE
  5
FA
100
AcDbEntity
  8
Exterior View
370
           0
  6
Continuous
 62
           7
100
AcDbLine
 10
-4.5
 20
4.125
 30
0.0
 11
-4.75
 21
4.125
 31
0.0
1001
TCAD
1000
TCW_CUSTOM_DATA
1002
{
1000
#$AUX@_ToolInfo Properties
1070
           8
1000
Insert^JLine^JSingle@Line Single
1002
}
  0
LINE
  5
FB
100
AcDbEntity
  8
Exterior View
370
           0
  6
Continuous
 62
           7
100
AcDbLine
 10
-3.0
 20
6.125
 30
0.0
 11
-2.75
 21
6.125
 31
0.0
1001
TCAD
1000
TCW_CUSTOM_DATA
1002
{
1000
#$AUX@_ToolInfo Properties
1070
           8
1000
Insert^JLine^JSingle@Line Single
1002
}
  0
LINE
  5
FC
100
AcDbEntity
  8
Exterior View
370
           0
  6
Continuous
 62
           7
100
AcDbLine
 10
-3.0
 20
4.125
 30
0.0
 11
-2.75
 21
4.125
 31
0.0
1001
TCAD
1000
TCW_CUSTOM_DATA
1002
{
1000
#$AUX@_ToolInfo Properties
1070
           8
1000
Insert^JLine^JSingle@Line Single
1002
}
  0
LINE
  5
FD
100
AcDbEntity
  8
Exterior View
370
           0
  6
Continuous
 62
           7
100
AcDbLine
 10
-2.75
 20
4.125
 30
0.0
 11
-2.75
 21
6.125
 31
0.0
1001
TCAD
1000
TCW_CUSTOM_DATA
1002
{
1000
#$AUX@_ToolInfo Properties
1070
           8
1000
Insert^JLine^JSingle@Line Single
1002
}
  0
LINE
  5
FE
100
AcDbEntity
  8
Exterior View
370
           0
  6
Continuous
 62
           7
100
AcDbLine
 10
-4.75
 20
5.4375
 30
0.0
 11
-4.5
 21
5.4375
 31
0.0
1001
TCAD
1000
TCW_CUSTOM_DATA
1002
{
1000
#$AUX@_ToolInfo Properties
1070
           8
1000
Insert^JLine^JSingle@Line Single
1002
}
  0
LINE
  5
FF
100
AcDbEntity
  8
Exterior View
370
           0
  6
Continuous
 62
           7
100
AcDbLine
 10
-4.75
 20
4.8125
 30
0.0
 11
-4.5
 21
4.8125
 31
0.0
1001
TCAD
1000
TCW_CUSTOM_DATA
1002
{
1000
#$AUX@_ToolInfo Properties
1070
           8
1000
Insert^JLine^JSingle@Line Single
1002
}
  0
LINE
  5
100
100
AcDbEntity
  8
Exterior View
370
           0
  6
Continuous
 62
           7
100
AcDbLine
 10
-3.0
 20
5.4375
 30
0.0
 11
-2.75
 21
5.4375
 31
0.0
1001
TCAD
1000
TCW_CUSTOM_DATA
1002
{
1000
#$AUX@_ToolInfo Properties
1070
           8
1000
Insert^JLine^JSingle@Line Single
1002
}
  0
LINE
  5
101
100
AcDbEntity
  8
Exterior View
370
           0
  6
Continuous
 62
           7
100
AcDbLine
 10
-3.0
 20
4.8125
 30
0.0
 11
-2.75
 21
4.8125
 31
0.0
1001
TCAD
1000
TCW_CUSTOM_DATA
1002
{
1000
#$AUX@_ToolInfo Properties
1070
           8
1000
Insert^JLine^JSingle@Line Single
1002
}
  0
LINE
  5
102
100
AcDbEntity
  8
Exterior View
370
           0
  6
Continuous
 62
           7
100
AcDbLine
 10
-1.260723304703
 20
11.512563132924
 30
0.0
 11
-1.4375
 21
11.335786437627
 31
0.0
1001
TCAD
1000
TCW_CUSTOM_DATA
1002
{
1000
#$AUX@_ToolInfo Properties
1070
           8
1000
Insert^JLine^JSingle@Line Single
1002
}
  0
LINE
  5
103
100
AcDbEntity
  8
Exterior View
370
           0
  6
Continuous
 62
           7
100
AcDbLine
 10
-0.200063132924
 20
12.573223304703
 30
0.0
 11
-0.023286437627
 21
12.75
 31
0.0
1001
TCAD
1000
TCW_CUSTOM_DATA
1002
{
1000
#$AUX@_ToolInfo Properties
1070
           8
1000
Insert^JLine^JSingle@Line Single
1002
}
  0
LINE
  5
104
100
AcDbEntity
  8
Exterior View
370
           0
  6
Continuous
 62
           7
100
AcDbLine
 10
-2.0
 20
10.875
 30
0.0
 11
-2.0
 21
6.875
 31
0.0
1001
TCAD
1000
TCW_CUSTOM_DATA
1002
{
1000
#$AUX@_ToolInfo Properties
1070
           8
1000
Insert^JLine^JSingle@Line Single
1002
}
  0
TEXT
  5
105
100
AcDbEntity
  8
0
  6
Continuous
 62
           7
100
AcDbText
 10
-4.474178791887
 20
4.91875
 30
0.0
 40
0.4125
  1
Servo
 11
-4.474178791887
 21
5.33125
 31
0.0
100
AcDbText
 73
           3
1001
TCAD
1000
TCW_CUSTOM_DATA
1002
{
1000
#$AUX@_ToolInfo Properties
1070
           8
1000
Insert^JText@Text
1002
}
1000
TCW40_TEXT
1002
{
1000
Times New Roman
1070
           0
1070
         257
1002
}
  0
LINE
  5
106
100
AcDbEntity
  8
Exterior View
370
           0
  6
Continuous
 62
           7
100
AcDbLine
 10
-1.172334957055
 20
13.545495128835
 30
-0.0
 11
-2.232995128835
 21
12.484834957055
 31
-0.0
1001
TCAD
1000
TCW_CUSTOM_DATA
1002
{
1000
#$AUX@_ToolInfo Properties
1070
           8
1000
Insert^JLine^JSingle@Line Single
1002
}
  0
LINE
  5
107
100
AcDbEntity
  8
Exterior View
370
           0
  6
Continuous
 62
           7
100
AcDbLine
 10
-1.614276695297
 20
13.987436867076
 30
-0.0
 11
-0.200063132924
 21
12.573223304703
 31
-0.0
1001
TCAD
1000
TCW_CUSTOM_DATA
1002
{
1000
#$AUX@_ToolInfo Properties
1070
           8
1000
Insert^JLine^JSingle@Line Single
1002
}
  0
LINE
  5
108
100
AcDbEntity
  8
Exterior View
370
           0
  6
Continuous
 62
           7
100
AcDbLine
 10
-2.674936867076
 20
12.926776695297
 30
-0.0
 11
-1.260723304703
 21
11.512563132924
 31
-0.0
1001
TCAD
1000
TCW_CUSTOM_DATA
1002
{
1000
#$AUX@_ToolInfo Properties
1070
           8
1000
Insert^JLine^JSingle@Line Single
1002
}
  0
LINE
  5
109
100
AcDbEntity
  8
Exterior View
370
           0
  6
Continuous
 62
           7
100
AcDbLine
 10
-0.642004871165
 20
13.015165042945
 30
-0.0
 11
-1.702665042945
 21
11.954504871165
 31
-0.0
1001
TCAD
1000
TCW_CUSTOM_DATA
1002
{
1000
#$AUX@_ToolInfo Properties
1070
           8
1000
Insert^JLine^JSingle@Line Single
1002
}
  0
LINE
  5
10A
100
AcDbEntity
  8
Exterior View
370
           0
  6
Continuous
 62
           7
100
AcDbLine
 10
-2.674936867076
 20
12.926776695297
 30
-0.0
 11
-2.851713562373
 21
12.75
 31
-0.0
1001
TCAD
1000
TCW_CUSTOM_DATA
1002
{
1000
#$AUX@_ToolInfo Properties
1070
           8
1000
Insert^JLine^JSingle@Line Single
1002
}
  0
LINE
  5
10B
100
AcDbEntity
  8
Exterior View
370
           0
  6
Continuous
 62
           7
100
AcDbLine
 10
-2.851713562373
 20
12.75
 30
-0.0
 11
-1.4375
 21
11.335786437627
 31
-0.0
1001
TCAD
1000
TCW_CUSTOM_DATA
1002
{
1000
#$AUX@_ToolInfo Properties
1070
           8
1000
Insert^JLine^JSingle@Line Single
1002
}
  0
LINE
  5
10C
100
AcDbEntity
  8
Exterior View
370
           0
  6
Continuous
 62
           7
100
AcDbLine
 10
-1.614276695297
 20
13.987436867076
 30
-0.0
 11
-1.4375
 21
14.164213562373
 31
-0.0
1001
TCAD
1000
TCW_CUSTOM_DATA
1002
{
1000
#$AUX@_ToolInfo Properties
1070
           8
1000
Insert^JLine^JSingle@Line Single
1002
}
  0
LINE
  5
10D
100
AcDbEntity
  8
Exterior View
370
           0
  6
Continuous
 62
           7
100
AcDbLine
 10
-0.023286437627
 20
12.75
 30
-0.0
 11
-1.4375
 21
14.164213562373
 31
-0.0
1001
TCAD
1000
TCW_CUSTOM_DATA
1002
{
1000
#$AUX@_ToolInfo Properties
1070
           8
1000
Insert^JLine^JSingle@Line Single
1002
}
  0
LINE
  5
10E
100
AcDbEntity
  8
Exterior View
370
           0
  6
Continuous
 62
           7
100
AcDbLine
 10
-2.365577650307
 20
12.263864087934
 30
-0.0
 11
-2.188800955011
 21
12.440640783231
 31
-0.0
1001
TCAD
1000
TCW_CUSTOM_DATA
1002
{
1000
#$AUX@_ToolInfo Properties
1070
           8
1000
Insert^JLine^JSingle@Line Single
1002
}
  0
LINE
  5
10F
100
AcDbEntity
  8
Exterior View
370
           0
  6
Continuous
 62
           7
100
AcDbLine
 10
-1.923635912066
 20
11.821922349693
 30
-0.0
 11
-1.746859216769
 21
11.998699044989
 31
-0.0
1001
TCAD
1000
TCW_CUSTOM_DATA
1002
{
1000
#$AUX@_ToolInfo Properties
1070
           8
1000
Insert^JLine^JSingle@Line Single
1002
}
  0
LINE
  5
110
100
AcDbEntity
  8
Exterior View
370
           0
  6
Continuous
 62
           7
100
AcDbLine
 10
-1.128140783231
 20
13.501300955011
 30
-0.0
 11
-0.951364087934
 21
13.678077650307
 31
-0.0
1001
TCAD
1000
TCW_CUSTOM_DATA
1002
{
1000
#$AUX@_ToolInfo Properties
1070
           8
1000
Insert^JLine^JSingle@Line Single
1002
}
  0
LINE
  5
111
100
AcDbEntity
  8
Exterior View
370
           0
  6
Continuous
 62
           7
100
AcDbLine
 10
-0.686199044989
 20
13.059359216769
 30
-0.0
 11
-0.509422349693
 21
13.236135912066
 31
-0.0
1001
TCAD
1000
TCW_CUSTOM_DATA
1002
{
1000
#$AUX@_ToolInfo Properties
1070
           8
1000
Insert^JLine^JSingle@Line Single
1002
}
  0
TEXT
  5
112
100
AcDbEntity
  8
0
  6
Continuous
 62
           7
100
AcDbText
 10
-1.803730960915
 20
12.092087491845
 30
0.0
 40
0.4125
  1
Servo
 50
45.0
 11
-2.095412508155
 21
12.383769039085
 31
0.0
100
AcDbText
 73
           3
1001
TCAD
1000
TCW_CUSTOM_DATA
1002
{
1000
#$AUX@_ToolInfo Properties
1070
           8
1000
Insert^JText@Text
1002
}
1000
TCW40_TEXT
1002
{
1000
Times New Roman
1070
           0
1070
         257
1002
}
  0
LINE
  5
113
100
AcDbEntity
  8
Exterior View
370
           0
  6
Continuous
 62
           7
100
AcDbLine
 10
-18.131405725126
 20
12.422256364331
 30
0.0
 11
-17.424298943939
 21
13.129363145518
 31
0.0
1001
TCAD
1000
TCW_CUSTOM_DATA
1002
{
1000
#$AUX@_ToolInfo Properties
1070
           8
1000
Insert^JLine^JSingle@Line Single
1002
}
  0
LINE
  5
114
100
AcDbEntity
  8
Exterior View
370
           0
  6
Continuous
 62
           7
100
AcDbLine
 10
-18.131405725126
 20
12.422256364331
 30
0.0
 11
-17.866240682181
 21
12.157091321386
 31
0.0
1001
TCAD
1000
TCW_CUSTOM_DATA
1002
{
1000
#$AUX@_ToolInfo Properties
1070
           8
1000
Insert^JLine^JSingle@Line Single
1002
}
  0
LINE
  5
115
100
AcDbEntity
  8
Exterior View
370
           0
  6
Continuous
 62
           7
100
AcDbLine
 10
-17.424298943939
 20
13.129363145518
 30
0.0
 11
-17.159133900994
 21
12.864198102573
 31
0.0
1001
TCAD
1000
TCW_CUSTOM_DATA
1002
{
1000
#$AUX@_ToolInfo Properties
1070
           8
1000
Insert^JLine^JSingle@Line Single
1002
}
  0
LINE
  5
116
100
AcDbEntity
  8
Exterior View
370
           0
  6
Continuous
 62
           7
100
AcDbLine
 10
-17.866240682181
 20
12.157091321386
 30
0.0
 11
-17.159133900994
 21
12.864198102573
 31
0.0
1001
TCAD
1000
TCW_CUSTOM_DATA
1002
{
1000
#$AUX@_ToolInfo Properties
1070
           8
1000
Insert^JLine^JSingle@Line Single
1002
}
  0
TEXT
  5
117
100
AcDbEntity
  8
0
  6
Continuous
 62
           7
100
AcDbText
 10
-17.592321185402
 20
12.018339481585
 30
0.0
 40
0.45
  1
Switch
 11
-17.592321185402
 21
12.468339481585
 31
0.0
100
AcDbText
 73
           3
1001
TCAD
1000
TCW_CUSTOM_DATA
1002
{
1000
#$AUX@_ToolInfo Properties
1070
           8
1000
Insert^JText@Text
1002
}
1000
TCW40_TEXT
1002
{
1000
Times New Roman
1070
           0
1070
         257
1002
}
  0
TEXT
  5
118
100
AcDbEntity
  8
0
  6
Continuous
 62
           7
100
AcDbText
 10
-12.807544869512
 20
12.495060076136
 30
0.0
 40
0.45
  1
Receiver
 11
-12.807544869512
 21
12.945060076136
 31
0.0
100
AcDbText
 73
           3
1001
TCAD
1000
TCW_CUSTOM_DATA
1002
{
1000
#$AUX@_ToolInfo Properties
1070
           8
1000
Insert^JText@Text
1002
}
1000
TCW40_TEXT
1002
{
1000
Times New Roman
1070
           0
1070
         257
1002
}
  0
TEXT
  5
119
100
AcDbEntity
  8
0
  6
Continuous
 62
           7
100
AcDbText
 10
-12.50460896164
 20
8.603125
 30
0.0
 40
0.45
  1
Fuel Tank
 11
-12.50460896164
 21
9.053125
 31
0.0
100
AcDbText
 73
           3
1001
TCAD
1000
TCW_CUSTOM_DATA
1002
{
1000
#$AUX@_ToolInfo Properties
1070
           8
1000
Insert^JText@Text
1002
}
1000
TCW40_TEXT
1002
{
1000
Times New Roman
1070
           0
1070
         257
1002
}
  0
TEXT
  5
11A
100
AcDbEntity
  8
0
  6
Continuous
 62
           7
100
AcDbText
 10
-14.016038359788
 20
6.9
 30
0.0
 40
0.45
  1
Batteries
 11
-14.016038359788
 21
7.35
 31
0.0
100
AcDbText
 73
           3
1001
TCAD
1000
TCW_CUSTOM_DATA
1002
{
1000
#$AUX@_ToolInfo Properties
1070
           8
1000
Insert^JText@Text
1002
}
1000
TCW40_TEXT
1002
{
1000
Times New Roman
1070
           0
1070
         257
1002
}
  0
LINE
  5
11B
100
AcDbEntity
  8
Exterior View
370
           0
  6
Continuous
 62
           7
100
AcDbLine
 10
3.0
 20
-7.75
 30
0.0
 11
14.75
 21
-7.75
 31
0.0
1001
TCAD
1000
TCW_CUSTOM_DATA
1002
{
1000
#$AUX@_ToolInfo Properties
1070
           8
1000
Insert^JLine^JSingle@Line Single
1002
}
  0
LINE
  5
11C
100
AcDbEntity
  8
Exterior View
370
           0
  6
Continuous
 62
           7
100
AcDbLine
 10
14.75
 20
-7.75
 30
0.0
 11
14.75
 21
-6.75
 31
0.0
1001
TCAD
1000
TCW_CUSTOM_DATA
1002
{
1000
#$AUX@_ToolInfo Properties
1070
           8
1000
Insert^JLine^JSingle@Line Single
1002
}
  0
LINE
  5
11D
100
AcDbEntity
  8
Exterior View
370
           0
  6
Continuous
 62
           7
100
AcDbLine
 10
14.75
 20
-6.75
 30
0.0
 11
3.0
 21
-6.75
 31
0.0
1001
TCAD
1000
TCW_CUSTOM_DATA
1002
{
1000
#$AUX@_ToolInfo Properties
1070
           8
1000
Insert^JLine^JSingle@Line Single
1002
}
  0
LINE
  5
11E
100
AcDbEntity
  8
Exterior View
370
           0
  6
Continuous
 62
           7
100
AcDbLine
 10
3.0
 20
-7.75
 30
0.0
 11
3.0
 21
-6.75
 31
0.0
1001
TCAD
1000
TCW_CUSTOM_DATA
1002
{
1000
#$AUX@_ToolInfo Properties
1070
           8
1000
Insert^JLine^JSingle@Line Single
1002
}
  0
LINE
  5
11F
100
AcDbEntity
  8
Exterior View
370
           0
  6
Continuous
 62
           7
100
AcDbLine
 10
11.0
 20
-6.75
 30
0.0
 11
11.0
 21
-1.0
 31
0.0
1001
TCAD
1000
TCW_CUSTOM_DATA
1002
{
1000
#$AUX@_ToolInfo Properties
1070
           8
1000
Insert^JLine^JPerpendicular@Line Perpendicular
1002
}
  0
LINE
  5
120
100
AcDbEntity
  8
Exterior View
370
           0
  6
Continuous
 62
           7
100
AcDbLine
 10
10.875
 20
-6.75
 30
0.0
 11
10.875
 21
-1.0
 31
0.0
1001
TCAD
1000
TCW_CUSTOM_DATA
1002
{
1000
#$AUX@_ToolInfo Properties
1070
           8
1000
Insert^JLine^JPerpendicular@Line Perpendicular
1002
}
  0
LINE
  5
121
100
AcDbEntity
  8
Exterior View
370
           0
  6
Continuous
 62
           7
100
AcDbLine
 10
6.75
 20
-6.75
 30
0.0
 11
6.75
 21
-1.0
 31
0.0
1001
TCAD
1000
TCW_CUSTOM_DATA
1002
{
1000
#$AUX@_ToolInfo Properties
1070
           8
1000
Insert^JLine^JPerpendicular@Line Perpendicular
1002
}
  0
LINE
  5
122
100
AcDbEntity
  8
Exterior View
370
           0
  6
Continuous
 62
           7
100
AcDbLine
 10
6.875
 20
-6.75
 30
0.0
 11
6.875
 21
-1.0
 31
0.0
1001
TCAD
1000
TCW_CUSTOM_DATA
1002
{
1000
#$AUX@_ToolInfo Properties
1070
           8
1000
Insert^JLine^JPerpendicular@Line Perpendicular
1002
}
  0
LINE
  5
123
100
AcDbEntity
  8
Exterior View
370
           0
  6
Continuous
 62
           7
100
AcDbLine
 10
11.0
 20
-1.0
 30
0.0
 11
6.75
 21
-1.0
 31
0.0
1001
TCAD
1000
TCW_CUSTOM_DATA
1002
{
1000
#$AUX@_ToolInfo Properties
1070
           8
1000
Insert^JLine^JPerpendicular@Line Perpendicular
1002
}
  0
LINE
  5
124
100
AcDbEntity
  8
Exterior View
370
           0
  6
Continuous
 62
           7
100
AcDbLine
 10
10.875
 20
-1.125
 30
0.0
 11
6.875
 21
-1.125
 31
0.0
1001
TCAD
1000
TCW_CUSTOM_DATA
1002
{
1000
#$AUX@_ToolInfo Properties
1070
           8
1000
Insert^JLine^JPerpendicular@Line Perpendicular
1002
}
  0
LINE
  5
125
100
AcDbEntity
  8
Exterior View
370
           0
  6
Continuous
 62
           7
100
AcDbLine
 10
11.5
 20
-6.75
 30
0.0
 11
11.5
 21
-6.625
 31
0.0
1001
TCAD
1000
TCW_CUSTOM_DATA
1002
{
1000
#$AUX@_ToolInfo Properties
1070
           8
1000
Insert^JLine^JPerpendicular@Line Perpendicular
1002
}
  0
LINE
  5
126
100
AcDbEntity
  8
Exterior View
370
           0
  6
Continuous
 62
           7
100
AcDbLine
 10
6.25
 20
-6.75
 30
0.0
 11
6.25
 21
-6.625
 31
0.0
1001
TCAD
1000
TCW_CUSTOM_DATA
1002
{
1000
#$AUX@_ToolInfo Properties
1070
           8
1000
Insert^JLine^JPerpendicular@Line Perpendicular
1002
}
  0
LINE
  5
127
100
AcDbEntity
  8
Exterior View
370
           0
  6
Continuous
 62
           7
100
AcDbLine
 10
6.25
 20
-6.625
 30
0.0
 11
6.75
 21
-6.625
 31
0.0
1001
TCAD
1000
TCW_CUSTOM_DATA
1002
{
1000
#$AUX@_ToolInfo Properties
1070
           8
1000
Insert^JLine^JPerpendicular@Line Perpendicular
1002
}
  0
LINE
  5
128
100
AcDbEntity
  8
Exterior View
370
           0
  6
Continuous
 62
           7
100
AcDbLine
 10
6.875
 20
-6.625
 30
0.0
 11
10.875
 21
-6.625
 31
0.0
1001
TCAD
1000
TCW_CUSTOM_DATA
1002
{
1000
#$AUX@_ToolInfo Properties
1070
           8
1000
Insert^JLine^JPerpendicular@Line Perpendicular
1002
}
  0
LINE
  5
129
100
AcDbEntity
  8
Exterior View
370
           0
  6
Continuous
 62
           7
100
AcDbLine
 10
11.0
 20
-6.625
 30
0.0
 11
11.5
 21
-6.625
 31
0.0
1001
TCAD
1000
TCW_CUSTOM_DATA
1002
{
1000
#$AUX@_ToolInfo Properties
1070
           8
1000
Insert^JLine^JPerpendicular@Line Perpendicular
1002
}
  0
LINE
  5
12A
100
AcDbEntity
  8
Hidden
370
           0
  6
HIDDEN
 62
           7
 48
0.20000000298
100
AcDbLine
 10
11.0
 20
-6.625
 30
0.0
 11
10.875
 21
-6.625
 31
0.0
1001
TCAD
1000
TCW_CUSTOM_DATA
1002
{
1000
#$AUX@_ToolInfo Properties
1070
           8
1000
Insert^JLine^JPerpendicular@Line Perpendicular
1002
}
  0
LINE
  5
12B
100
AcDbEntity
  8
Hidden
370
           0
  6
HIDDEN
 62
           7
 48
0.20000000298
100
AcDbLine
 10
6.875
 20
-6.625
 30
0.0
 11
6.75
 21
-6.625
 31
0.0
1001
TCAD
1000
TCW_CUSTOM_DATA
1002
{
1000
#$AUX@_ToolInfo Properties
1070
           8
1000
Insert^JLine^JPerpendicular@Line Perpendicular
1002
}
  0
LINE
  5
12C
100
AcDbEntity
  8
Hidden
370
           0
  6
HIDDEN
 62
           7
 48
0.20000000298
100
AcDbLine
 10
6.25
 20
-6.75
 30
0.0
 11
6.25
 21
-7.75
 31
0.0
1001
TCAD
1000
TCW_CUSTOM_DATA
1002
{
1000
#$AUX@_ToolInfo Properties
1070
           8
1000
Insert^JLine^JPerpendicular@Line Perpendicular
1002
}
  0
LINE
  5
12D
100
AcDbEntity
  8
Hidden
370
           0
  6
HIDDEN
 62
           7
 48
0.20000000298
100
AcDbLine
 10
11.5
 20
-6.75
 30
0.0
 11
11.5
 21
-7.75
 31
0.0
1001
TCAD
1000
TCW_CUSTOM_DATA
1002
{
1000
#$AUX@_ToolInfo Properties
1070
           8
1000
Insert^JLine^JPerpendicular@Line Perpendicular
1002
}
  0
LINE
  5
12E
100
AcDbEntity
  8
Exterior View
370
           0
  6
Continuous
 62
           7
100
AcDbLine
 10
10.0
 20
-6.625
 30
0.0
 11
10.0
 21
-5.625
 31
0.0
1001
TCAD
1000
TCW_CUSTOM_DATA
1002
{
1000
#$AUX@_ToolInfo Properties
1070
           8
1000
Insert^JLine^JPerpendicular@Line Perpendicular
1002
}
  0
LINE
  5
12F
100
AcDbEntity
  8
Exterior View
370
           0
  6
Continuous
 62
           7
100
AcDbLine
 10
7.75
 20
-6.625
 30
0.0
 11
7.75
 21
-5.625
 31
0.0
1001
TCAD
1000
TCW_CUSTOM_DATA
1002
{
1000
#$AUX@_ToolInfo Properties
1070
           8
1000
Insert^JLine^JPerpendicular@Line Perpendicular
1002
}
  0
LINE
  5
130
100
AcDbEntity
  8
Exterior View
370
           0
  6
Continuous
 62
           7
100
AcDbLine
 10
9.875
 20
-6.625
 30
0.0
 11
9.875
 21
-5.625
 31
0.0
1001
TCAD
1000
TCW_CUSTOM_DATA
1002
{
1000
#$AUX@_ToolInfo Properties
1070
           8
1000
Insert^JLine^JPerpendicular@Line Perpendicular
1002
}
  0
LINE
  5
131
100
AcDbEntity
  8
Exterior View
370
           0
  6
Continuous
 62
           7
100
AcDbLine
 10
7.875
 20
-6.625
 30
0.0
 11
7.875
 21
-5.625
 31
0.0
1001
TCAD
1000
TCW_CUSTOM_DATA
1002
{
1000
#$AUX@_ToolInfo Properties
1070
           8
1000
Insert^JLine^JPerpendicular@Line Perpendicular
1002
}
  0
LINE
  5
132
100
AcDbEntity
  8
Exterior View
370
           0
  6
Continuous
 62
           7
100
AcDbLine
 10
10.125
 20
-6.625
 30
0.0
 11
10.125
 21
-5.625
 31
0.0
1001
TCAD
1000
TCW_CUSTOM_DATA
1002
{
1000
#$AUX@_ToolInfo Properties
1070
           8
1000
Insert^JLine^JPerpendicular@Line Perpendicular
1002
}
  0
LINE
  5
133
100
AcDbEntity
  8
Exterior View
370
           0
  6
Continuous
 62
           7
100
AcDbLine
 10
7.625
 20
-6.625
 30
0.0
 11
7.625
 21
-5.625
 31
0.0
1001
TCAD
1000
TCW_CUSTOM_DATA
1002
{
1000
#$AUX@_ToolInfo Properties
1070
           8
1000
Insert^JLine^JPerpendicular@Line Perpendicular
1002
}
  0
LINE
  5
134
100
AcDbEntity
  8
Exterior View
370
           0
  6
Continuous
 62
           7
100
AcDbLine
 10
7.875
 20
-5.625
 30
0.0
 11
7.75
 21
-5.625
 31
0.0
1001
TCAD
1000
TCW_CUSTOM_DATA
1002
{
1000
#$AUX@_ToolInfo Properties
1070
           8
1000
Insert^JLine^JPerpendicular@Line Perpendicular
1002
}
  0
LINE
  5
135
100
AcDbEntity
  8
Exterior View
370
           0
  6
Continuous
 62
           7
100
AcDbLine
 10
10.0
 20
-5.625
 30
0.0
 11
9.875
 21
-5.625
 31
0.0
1001
TCAD
1000
TCW_CUSTOM_DATA
1002
{
1000
#$AUX@_ToolInfo Properties
1070
           8
1000
Insert^JLine^JPerpendicular@Line Perpendicular
1002
}
  0
CIRCLE
  5
136
100
AcDbEntity
  8
Exterior View
370
           0
  6
PHANTOM
 62
           7
 48
0.5
100
AcDbCircle
 10
8.875
 20
-3.9375
 30
0.0
 40
2.5
1001
TCAD
1000
TCW_CUSTOM_DATA
1002
{
1000
#$AUX@_ToolInfo Properties
1070
           8
1000
Insert^JCircle^JCenterAndPoint@Circle CenterAndPoint
1002
}
  0
LINE
  5
137
100
AcDbEntity
  8
Exterior View
370
           0
  6
Continuous
 62
           7
100
AcDbLine
 10
8.375
 20
-3.375
 30
0.0
 11
9.375
 21
-3.375
 31
0.0
1001
TCAD
1000
TCW_CUSTOM_DATA
1002
{
1000
#$AUX@_ToolInfo Properties
1070
           8
1000
Insert^JLine^JSingle@Line Single
1002
}
  0
LINE
  5
138
100
AcDbEntity
  8
Exterior View
370
           0
  6
Continuous
 62
           7
100
AcDbLine
 10
8.375
 20
-3.375
 30
0.0
 11
8.375
 21
-4.625
 31
0.0
1001
TCAD
1000
TCW_CUSTOM_DATA
1002
{
1000
#$AUX@_ToolInfo Properties
1070
           8
1000
Insert^JLine^JSingle@Line Single
1002
}
  0
LINE
  5
139
100
AcDbEntity
  8
Exterior View
370
           0
  6
Continuous
 62
           7
100
AcDbLine
 10
9.375
 20
-3.375
 30
0.0
 11
9.375
 21
-4.625
 31
0.0
1001
TCAD
1000
TCW_CUSTOM_DATA
1002
{
1000
#$AUX@_ToolInfo Properties
1070
           8
1000
Insert^JLine^JSingle@Line Single
1002
}
  0
LINE
  5
13A
100
AcDbEntity
  8
Exterior View
370
           0
  6
Continuous
 62
           7
100
AcDbLine
 10
10.125
 20
-5.625
 30
0.0
 11
9.375
 21
-4.625
 31
0.0
1001
TCAD
1000
TCW_CUSTOM_DATA
1002
{
1000
#$AUX@_ToolInfo Properties
1070
           8
1000
Insert^JLine^JSingle@Line Single
1002
}
  0
LINE
  5
13B
100
AcDbEntity
  8
Exterior View
370
           0
  6
Continuous
 62
           7
100
AcDbLine
 10
9.625
 20
-6.625
 30
0.0
 11
9.625
 21
-5.75
 31
0.0
1001
TCAD
1000
TCW_CUSTOM_DATA
1002
{
1000
#$AUX@_ToolInfo Properties
1070
           8
1000
Insert^JLine^JSingle@Line Single
1002
}
  0
LINE
  5
13C
100
AcDbEntity
  8
Exterior View
370
           0
  6
Continuous
 62
           7
100
AcDbLine
 10
8.125
 20
-6.625
 30
0.0
 11
8.125
 21
-5.75
 31
0.0
1001
TCAD
1000
TCW_CUSTOM_DATA
1002
{
1000
#$AUX@_ToolInfo Properties
1070
           8
1000
Insert^JLine^JSingle@Line Single
1002
}
  0
LINE
  5
13D
100
AcDbEntity
  8
Exterior View
370
           0
  6
Continuous
 62
           7
100
AcDbLine
 10
7.625
 20
-5.625
 30
0.0
 11
8.375
 21
-4.625
 31
0.0
1001
TCAD
1000
TCW_CUSTOM_DATA
1002
{
1000
#$AUX@_ToolInfo Properties
1070
           8
1000
Insert^JLine^JSingle@Line Single
1002
}
  0
LINE
  5
13E
100
AcDbEntity
  8
Exterior View
370
           0
  6
Continuous
 62
           7
100
AcDbLine
 10
8.125
 20
-5.75
 30
0.0
 11
8.875
 21
-4.732142857143
 31
0.0
1001
TCAD
1000
TCW_CUSTOM_DATA
1002
{
1000
#$AUX@_ToolInfo Properties
1070
           8
1000
Insert^JLine^JSingle@Line Single
1002
}
  0
LINE
  5
13F
100
AcDbEntity
  8
Exterior View
370
           0
  6
Continuous
 62
           7
100
AcDbLine
 10
9.625
 20
-5.75
 30
0.0
 11
8.875
 21
-4.732142857143
 31
0.0
1001
TCAD
1000
TCW_CUSTOM_DATA
1002
{
1000
#$AUX@_ToolInfo Properties
1070
           8
1000
Insert^JLine^JSingle@Line Single
1002
}
  0
LINE
  5
140
100
AcDbEntity
  8
Exterior View
370
           0
  6
Continuous
 62
           7
100
AcDbLine
 10
8.375
 20
-4.625
 30
0.0
 11
9.375
 21
-4.625
 31
0.0
1001
TCAD
1000
TCW_CUSTOM_DATA
1002
{
1000
#$AUX@_ToolInfo Properties
1070
           8
1000
Insert^JLine^JSingle@Line Single
1002
}
  0
CIRCLE
  5
141
100
AcDbEntity
  8
Exterior View
370
           0
  6
Continuous
 62
           7
100
AcDbCircle
 10
8.875
 20
-3.9375
 30
0.0
 40
0.1875
1001
TCAD
1000
TCW_CUSTOM_DATA
1002
{
1000
#$AUX@_ToolInfo Properties
1070
           8
1000
Insert^JCircle^JCenterAndPoint@Circle CenterAndPoint
1002
}
  0
LINE
  5
142
100
AcDbEntity
  8
Exterior View
370
           0
  6
Continuous
 62
           7
100
AcDbLine
 10
8.5
 20
-3.5625
 30
0.0
 11
8.5
 21
-4.3125
 31
0.0
1001
TCAD
1000
TCW_CUSTOM_DATA
1002
{
1000
#$AUX@_ToolInfo Properties
1070
           8
1000
Insert^JLine^JSingle@Line Single
1002
}
  0
LINE
  5
143
100
AcDbEntity
  8
Exterior View
370
           0
  6
Continuous
 62
           7
100
AcDbLine
 10
8.5
 20
-4.3125
 30
0.0
 11
9.25
 21
-4.3125
 31
0.0
1001
TCAD
1000
TCW_CUSTOM_DATA
1002
{
1000
#$AUX@_ToolInfo Properties
1070
           8
1000
Insert^JLine^JSingle@Line Single
1002
}
  0
LINE
  5
144
100
AcDbEntity
  8
Exterior View
370
           0
  6
Continuous
 62
           7
100
AcDbLine
 10
9.25
 20
-3.5625
 30
0.0
 11
9.25
 21
-4.3125
 31
0.0
1001
TCAD
1000
TCW_CUSTOM_DATA
1002
{
1000
#$AUX@_ToolInfo Properties
1070
           8
1000
Insert^JLine^JSingle@Line Single
1002
}
  0
LINE
  5
145
100
AcDbEntity
  8
Exterior View
370
           0
  6
Continuous
 62
           7
100
AcDbLine
 10
9.25
 20
-3.5625
 30
0.0
 11
8.5
 21
-3.5625
 31
0.0
1001
TCAD
1000
TCW_CUSTOM_DATA
1002
{
1000
#$AUX@_ToolInfo Properties
1070
           8
1000
Insert^JLine^JSingle@Line Single
1002
}
  0
LINE
  5
146
100
AcDbEntity
  8
Exterior View
370
           0
  6
Continuous
 62
           7
100
AcDbLine
 10
8.5625
 20
-2.5625
 30
0.0
 11
9.1875
 21
-2.5625
 31
0.0
1001
TCAD
1000
TCW_CUSTOM_DATA
1002
{
1000
#$AUX@_ToolInfo Properties
1070
           8
1000
Insert^JLine^JSingle@Line Single
1002
}
  0
LINE
  5
147
100
AcDbEntity
  8
Exterior View
370
           0
  6
Continuous
 62
           7
100
AcDbLine
 10
9.25
 20
-2.75
 30
0.0
 11
9.125
 21
-3.5625
 31
0.0
1001
TCAD
1000
TCW_CUSTOM_DATA
1002
{
1000
#$AUX@_ToolInfo Properties
1070
           8
1000
Insert^JLine^JSingle@Line Single
1002
}
  0
LINE
  5
148
100
AcDbEntity
  8
Exterior View
370
           0
  6
Continuous
 62
           7
100
AcDbLine
 10
8.5
 20
-2.75
 30
0.0
 11
8.625
 21
-3.5625
 31
0.0
1001
TCAD
1000
TCW_CUSTOM_DATA
1002
{
1000
#$AUX@_ToolInfo Properties
1070
           8
1000
Insert^JLine^JSingle@Line Single
1002
}
  0
LINE
  5
149
100
AcDbEntity
  8
Exterior View
370
           0
  6
Continuous
 62
           7
100
AcDbLine
 10
9.1875
 20
-2.5625
 30
0.0
 11
9.25
 21
-2.6875
 31
0.0
1001
TCAD
1000
TCW_CUSTOM_DATA
1002
{
1000
#$AUX@_ToolInfo Properties
1070
           8
1000
Insert^JLine^JSingle@Line Single
1002
}
  0
LINE
  5
14A
100
AcDbEntity
  8
Exterior View
370
           0
  6
Continuous
 62
           7
100
AcDbLine
 10
8.5625
 20
-2.5625
 30
0.0
 11
8.5
 21
-2.6875
 31
0.0
1001
TCAD
1000
TCW_CUSTOM_DATA
1002
{
1000
#$AUX@_ToolInfo Properties
1070
           8
1000
Insert^JLine^JSingle@Line Single
1002
}
  0
LINE
  5
14B
100
AcDbEntity
  8
Exterior View
370
           0
  6
Continuous
 62
           7
100
AcDbLine
 10
8.5
 20
-2.6875
 30
0.0
 11
8.5
 21
-2.75
 31
0.0
1001
TCAD
1000
TCW_CUSTOM_DATA
1002
{
1000
#$AUX@_ToolInfo Properties
1070
           8
1000
Insert^JLine^JSingle@Line Single
1002
}
  0
LINE
  5
14C
100
AcDbEntity
  8
Exterior View
370
           0
  6
Continuous
 62
           7
100
AcDbLine
 10
9.25
 20
-2.6875
 30
0.0
 11
9.25
 21
-2.75
 31
0.0
1001
TCAD
1000
TCW_CUSTOM_DATA
1002
{
1000
#$AUX@_ToolInfo Properties
1070
           8
1000
Insert^JLine^JSingle@Line Single
1002
}
  0
LINE
  5
14D
100
AcDbEntity
  8
Hidden
370
           0
  6
HIDDEN
 62
           7
 48
0.20000000298
100
AcDbLine
 10
7.625
 20
-6.625
 30
0.0
 11
7.625
 21
-6.75
 31
0.0
1001
TCAD
1000
TCW_CUSTOM_DATA
1002
{
1000
#$AUX@_ToolInfo Properties
1070
           8
1000
Insert^JLine^JSingle@Line Single
1002
}
  0
LINE
  5
14E
100
AcDbEntity
  8
Hidden
370
           0
  6
HIDDEN
 62
           7
 48
0.20000000298
100
AcDbLine
 10
7.75
 20
-6.625
 30
0.0
 11
7.75
 21
-6.75
 31
0.0
1001
TCAD
1000
TCW_CUSTOM_DATA
1002
{
1000
#$AUX@_ToolInfo Properties
1070
           8
1000
Insert^JLine^JSingle@Line Single
1002
}
  0
LINE
  5
14F
100
AcDbEntity
  8
Hidden
370
           0
  6
HIDDEN
 62
           7
 48
0.20000000298
100
AcDbLine
 10
7.875
 20
-6.625
 30
0.0
 11
7.875
 21
-6.75
 31
0.0
1001
TCAD
1000
TCW_CUSTOM_DATA
1002
{
1000
#$AUX@_ToolInfo Properties
1070
           8
1000
Insert^JLine^JSingle@Line Single
1002
}
  0
LINE
  5
150
100
AcDbEntity
  8
Hidden
370
           0
  6
HIDDEN
 62
           7
 48
0.20000000298
100
AcDbLine
 10
8.125
 20
-6.625
 30
0.0
 11
8.125
 21
-6.75
 31
0.0
1001
TCAD
1000
TCW_CUSTOM_DATA
1002
{
1000
#$AUX@_ToolInfo Properties
1070
           8
1000
Insert^JLine^JSingle@Line Single
1002
}
  0
LINE
  5
151
100
AcDbEntity
  8
Hidden
370
           0
  6
HIDDEN
 62
           7
 48
0.20000000298
100
AcDbLine
 10
9.625
 20
-6.625
 30
0.0
 11
9.625
 21
-6.75
 31
0.0
1001
TCAD
1000
TCW_CUSTOM_DATA
1002
{
1000
#$AUX@_ToolInfo Properties
1070
           8
1000
Insert^JLine^JSingle@Line Single
1002
}
  0
LINE
  5
152
100
AcDbEntity
  8
Hidden
370
           0
  6
HIDDEN
 62
           7
 48
0.20000000298
100
AcDbLine
 10
9.875
 20
-6.625
 30
0.0
 11
9.875
 21
-6.75
 31
0.0
1001
TCAD
1000
TCW_CUSTOM_DATA
1002
{
1000
#$AUX@_ToolInfo Properties
1070
           8
1000
Insert^JLine^JSingle@Line Single
1002
}
  0
LINE
  5
153
100
AcDbEntity
  8
Hidden
370
           0
  6
HIDDEN
 62
           7
 48
0.20000000298
100
AcDbLine
 10
10.0
 20
-6.625
 30
0.0
 11
10.0
 21
-6.75
 31
0.0
1001
TCAD
1000
TCW_CUSTOM_DATA
1002
{
1000
#$AUX@_ToolInfo Properties
1070
           8
1000
Insert^JLine^JSingle@Line Single
1002
}
  0
LINE
  5
154
100
AcDbEntity
  8
Hidden
370
           0
  6
HIDDEN
 62
           7
 48
0.20000000298
100
AcDbLine
 10
10.125
 20
-6.625
 30
0.0
 11
10.125
 21
-6.75
 31
0.0
1001
TCAD
1000
TCW_CUSTOM_DATA
1002
{
1000
#$AUX@_ToolInfo Properties
1070
           8
1000
Insert^JLine^JSingle@Line Single
1002
}
  0
POLYLINE
  5
155
100
AcDbEntity
  8
0
370
           0
  6
Continuous
 62
           7
100
AcDb2dPolyline
 66
           1
 10
0.0
 20
0.0
 30
0.0
 70
         132
 75
           6
1001
TCAD
1000
TCW_CUSTOM_DATA
1002
{
1000
#$AUX@_ToolInfo Properties
1070
           8
1000
Insert^JCurve^JSpline@Curve Spline
1002
}
  0
VERTEX
  5
156
100
AcDbEntity
  8
0
  6
Continuous
 62
           7
100
AcDbVertex
100
AcDb2dVertex
 10
3.0
 20
-7.75
 30
0.0
 70
          16
  0
VERTEX
  5
157
100
AcDbEntity
  8
0
  6
Continuous
 62
           7
100
AcDbVertex
100
AcDb2dVertex
 10
4.0
 20
-8.75
 30
0.0
 70
          16
  0
VERTEX
  5
158
100
AcDbEntity
  8
0
  6
Continuous
 62
           7
100
AcDbVertex
100
AcDb2dVertex
 10
4.25
 20
-8.75
 30
0.0
 70
          16
  0
VERTEX
  5
159
100
AcDbEntity
  8
0
  6
Continuous
 62
           7
100
AcDbVertex
100
AcDb2dVertex
 10
3.0
 20
-7.75
 30
0.0
 70
           8
  0
VERTEX
  5
15A
100
AcDbEntity
  8
0
  6
Continuous
 62
           7
100
AcDbVertex
100
AcDb2dVertex
 10
3.049984375
 20
-7.799979166667
 30
0.0
 70
           8
  0
VERTEX
  5
15B
100
AcDbEntity
  8
0
  6
Continuous
 62
           7
100
AcDbVertex
100
AcDb2dVertex
 10
3.099875
 20
-7.849833333333
 30
0.0
 70
           8
  0
VERTEX
  5
15C
100
AcDbEntity
  8
0
  6
Continuous
 62
           7
100
AcDbVertex
100
AcDb2dVertex
 10
3.149578125
 20
-7.8994375
 30
0.0
 70
           8
  0
VERTEX
  5
15D
100
AcDbEntity
  8
0
  6
Continuous
 62
           7
100
AcDbVertex
100
AcDb2dVertex
 10
3.199
 20
-7.948666666667
 30
0.0
 70
           8
  0
VERTEX
  5
15E
100
AcDbEntity
  8
0
  6
Continuous
 62
           7
100
AcDbVertex
100
AcDb2dVertex
 10
3.248046875
 20
-7.997395833333
 30
0.0
 70
           8
  0
VERTEX
  5
15F
100
AcDbEntity
  8
0
  6
Continuous
 62
           7
100
AcDbVertex
100
AcDb2dVertex
 10
3.296625
 20
-8.0455
 30
0.0
 70
           8
  0
VERTEX
  5
160
100
AcDbEntity
  8
0
  6
Continuous
 62
           7
100
AcDbVertex
100
AcDb2dVertex
 10
3.344640625
 20
-8.092854166667
 30
0.0
 70
           8
  0
VERTEX
  5
161
100
AcDbEntity
  8
0
  6
Continuous
 62
           7
100
AcDbVertex
100
AcDb2dVertex
 10
3.392
 20
-8.139333333333
 30
0.0
 70
           8
  0
VERTEX
  5
162
100
AcDbEntity
  8
0
  6
Continuous
 62
           7
100
AcDbVertex
100
AcDb2dVertex
 10
3.438609375
 20
-8.1848125
 30
0.0
 70
           8
  0
VERTEX
  5
163
100
AcDbEntity
  8
0
  6
Continuous
 62
           7
100
AcDbVertex
100
AcDb2dVertex
 10
3.484375
 20
-8.229166666667
 30
0.0
 70
           8
  0
VERTEX
  5
164
100
AcDbEntity
  8
0
  6
Continuous
 62
           7
100
AcDbVertex
100
AcDb2dVertex
 10
3.529203125
 20
-8.272270833333
 30
0.0
 70
           8
  0
VERTEX
  5
165
100
AcDbEntity
  8
0
  6
Continuous
 62
           7
100
AcDbVertex
100
AcDb2dVertex
 10
3.573
 20
-8.314
 30
0.0
 70
           8
  0
VERTEX
  5
166
100
AcDbEntity
  8
0
  6
Continuous
 62
           7
100
AcDbVertex
100
AcDb2dVertex
 10
3.615671875
 20
-8.354229166667
 30
0.0
 70
           8
  0
VERTEX
  5
167
100
AcDbEntity
  8
0
  6
Continuous
 62
           7
100
AcDbVertex
100
AcDb2dVertex
 10
3.657125
 20
-8.392833333333
 30
0.0
 70
           8
  0
VERTEX
  5
168
100
AcDbEntity
  8
0
  6
Continuous
 62
           7
100
AcDbVertex
100
AcDb2dVertex
 10
3.697265625
 20
-8.4296875
 30
0.0
 70
           8
  0
VERTEX
  5
169
100
AcDbEntity
  8
0
  6
Continuous
 62
           7
100
AcDbVertex
100
AcDb2dVertex
 10
3.736
 20
-8.464666666667
 30
0.0
 70
           8
  0
VERTEX
  5
16A
100
AcDbEntity
  8
0
  6
Continuous
 62
           7
100
AcDbVertex
100
AcDb2dVertex
 10
3.773234375
 20
-8.497645833333
 30
0.0
 70
           8
  0
VERTEX
  5
16B
100
AcDbEntity
  8
0
  6
Continuous
 62
           7
100
AcDbVertex
100
AcDb2dVertex
 10
3.808875
 20
-8.5285
 30
0.0
 70
           8
  0
VERTEX
  5
16C
100
AcDbEntity
  8
0
  6
Continuous
 62
           7
100
AcDbVertex
100
AcDb2dVertex
 10
3.875
 20
-8.583333333333
 30
0.0
 70
           8
  0
VERTEX
  5
16D
100
AcDbEntity
  8
0
  6
Continuous
 62
           7
100
AcDbVertex
100
AcDb2dVertex
 10
3.905328125
 20
-8.607104166667
 30
0.0
 70
           8
  0
VERTEX
  5
16E
100
AcDbEntity
  8
0
  6
Continuous
 62
           7
100
AcDbVertex
100
AcDb2dVertex
 10
3.933875
 20
-8.6285
 30
0.0
 70
           8
  0
VERTEX
  5
16F
100
AcDbEntity
  8
0
  6
Continuous
 62
           7
100
AcDbVertex
100
AcDb2dVertex
 10
3.960734375
 20
-8.647645833333
 30
0.0
 70
           8
  0
VERTEX
  5
170
100
AcDbEntity
  8
0
  6
Continuous
 62
           7
100
AcDbVertex
100
AcDb2dVertex
 10
3.986
 20
-8.664666666667
 30
0.0
 70
           8
  0
VERTEX
  5
171
100
AcDbEntity
  8
0
  6
Continuous
 62
           7
100
AcDbVertex
100
AcDb2dVertex
 10
4.009765625
 20
-8.6796875
 30
0.0
 70
           8
  0
VERTEX
  5
172
100
AcDbEntity
  8
0
  6
Continuous
 62
           7
100
AcDbVertex
100
AcDb2dVertex
 10
4.032125
 20
-8.692833333333
 30
0.0
 70
           8
  0
VERTEX
  5
173
100
AcDbEntity
  8
0
  6
Continuous
 62
           7
100
AcDbVertex
100
AcDb2dVertex
 10
4.053171875
 20
-8.704229166667
 30
0.0
 70
           8
  0
VERTEX
  5
174
100
AcDbEntity
  8
0
  6
Continuous
 62
           7
100
AcDbVertex
100
AcDb2dVertex
 10
4.073
 20
-8.714
 30
0.0
 70
           8
  0
VERTEX
  5
175
100
AcDbEntity
  8
0
  6
Continuous
 62
           7
100
AcDbVertex
100
AcDb2dVertex
 10
4.091703125
 20
-8.722270833333
 30
0.0
 70
           8
  0
VERTEX
  5
176
100
AcDbEntity
  8
0
  6
Continuous
 62
           7
100
AcDbVertex
100
AcDb2dVertex
 10
4.109375
 20
-8.729166666667
 30
0.0
 70
           8
  0
VERTEX
  5
177
100
AcDbEntity
  8
0
  6
Continuous
 62
           7
100
AcDbVertex
100
AcDb2dVertex
 10
4.126109375
 20
-8.7348125
 30
0.0
 70
           8
  0
VERTEX
  5
178
100
AcDbEntity
  8
0
  6
Continuous
 62
           7
100
AcDbVertex
100
AcDb2dVertex
 10
4.142
 20
-8.739333333333
 30
0.0
 70
           8
  0
VERTEX
  5
179
100
AcDbEntity
  8
0
  6
Continuous
 62
           7
100
AcDbVertex
100
AcDb2dVertex
 10
4.157140625
 20
-8.742854166667
 30
0.0
 70
           8
  0
VERTEX
  5
17A
100
AcDbEntity
  8
0
  6
Continuous
 62
           7
100
AcDbVertex
100
AcDb2dVertex
 10
4.171625
 20
-8.7455
 30
0.0
 70
           8
  0
VERTEX
  5
17B
100
AcDbEntity
  8
0
  6
Continuous
 62
           7
100
AcDbVertex
100
AcDb2dVertex
 10
4.185546875
 20
-8.747395833333
 30
0.0
 70
           8
  0
VERTEX
  5
17C
100
AcDbEntity
  8
0
  6
Continuous
 62
           7
100
AcDbVertex
100
AcDb2dVertex
 10
4.199
 20
-8.748666666667
 30
0.0
 70
           8
  0
VERTEX
  5
17D
100
AcDbEntity
  8
0
  6
Continuous
 62
           7
100
AcDbVertex
100
AcDb2dVertex
 10
4.212078125
 20
-8.7494375
 30
0.0
 70
           8
  0
VERTEX
  5
17E
100
AcDbEntity
  8
0
  6
Continuous
 62
           7
100
AcDbVertex
100
AcDb2dVertex
 10
4.224875
 20
-8.749833333333
 30
0.0
 70
           8
  0
VERTEX
  5
17F
100
AcDbEntity
  8
0
  6
Continuous
 62
           7
100
AcDbVertex
100
AcDb2dVertex
 10
4.25
 20
-8.75
 30
0.0
 70
           8
  0
SEQEND
  5
180
100
AcDbEntity
  8
0
  6
Continuous
 62
           7
  0
POLYLINE
  5
181
100
AcDbEntity
  8
0
370
           0
  6
Continuous
 62
           7
100
AcDb2dPolyline
 66
           1
 10
0.0
 20
0.0
 30
0.0
 70
         132
 75
           6
1001
TCAD
1000
TCW_CUSTOM_DATA
1002
{
1000
#$AUX@_ToolInfo Properties
1070
           8
1000
Insert^JCurve^JSpline@Curve Spline
1002
}
  0
VERTEX
  5
182
100
AcDbEntity
  8
0
  6
Continuous
 62
           7
100
AcDbVertex
100
AcDb2dVertex
 10
14.75
 20
-7.75
 30
0.0
 70
          16
  0
VERTEX
  5
183
100
AcDbEntity
  8
0
  6
Continuous
 62
           7
100
AcDbVertex
100
AcDb2dVertex
 10
13.75
 20
-8.75
 30
0.0
 70
          16
  0
VERTEX
  5
184
100
AcDbEntity
  8
0
  6
Continuous
 62
           7
100
AcDbVertex
100
AcDb2dVertex
 10
13.5
 20
-8.75
 30
0.0
 70
          16
  0
VERTEX
  5
185
100
AcDbEntity
  8
0
  6
Continuous
 62
           7
100
AcDbVertex
100
AcDb2dVertex
 10
14.75
 20
-7.75
 30
0.0
 70
           8
  0
VERTEX
  5
186
100
AcDbEntity
  8
0
  6
Continuous
 62
           7
100
AcDbVertex
100
AcDb2dVertex
 10
14.700015625
 20
-7.799979166667
 30
0.0
 70
           8
  0
VERTEX
  5
187
100
AcDbEntity
  8
0
  6
Continuous
 62
           7
100
AcDbVertex
100
AcDb2dVertex
 10
14.650125
 20
-7.849833333333
 30
0.0
 70
           8
  0
VERTEX
  5
188
100
AcDbEntity
  8
0
  6
Continuous
 62
           7
100
AcDbVertex
100
AcDb2dVertex
 10
14.600421875
 20
-7.8994375
 30
0.0
 70
           8
  0
VERTEX
  5
189
100
AcDbEntity
  8
0
  6
Continuous
 62
           7
100
AcDbVertex
100
AcDb2dVertex
 10
14.551
 20
-7.948666666667
 30
0.0
 70
           8
  0
VERTEX
  5
18A
100
AcDbEntity
  8
0
  6
Continuous
 62
           7
100
AcDbVertex
100
AcDb2dVertex
 10
14.501953125
 20
-7.997395833333
 30
0.0
 70
           8
  0
VERTEX
  5
18B
100
AcDbEntity
  8
0
  6
Continuous
 62
           7
100
AcDbVertex
100
AcDb2dVertex
 10
14.453375
 20
-8.0455
 30
0.0
 70
           8
  0
VERTEX
  5
18C
100
AcDbEntity
  8
0
  6
Continuous
 62
           7
100
AcDbVertex
100
AcDb2dVertex
 10
14.405359375
 20
-8.092854166667
 30
0.0
 70
           8
  0
VERTEX
  5
18D
100
AcDbEntity
  8
0
  6
Continuous
 62
           7
100
AcDbVertex
100
AcDb2dVertex
 10
14.358
 20
-8.139333333333
 30
0.0
 70
           8
  0
VERTEX
  5
18E
100
AcDbEntity
  8
0
  6
Continuous
 62
           7
100
AcDbVertex
100
AcDb2dVertex
 10
14.311390625
 20
-8.1848125
 30
0.0
 70
           8
  0
VERTEX
  5
18F
100
AcDbEntity
  8
0
  6
Continuous
 62
           7
100
AcDbVertex
100
AcDb2dVertex
 10
14.265625
 20
-8.229166666667
 30
0.0
 70
           8
  0
VERTEX
  5
190
100
AcDbEntity
  8
0
  6
Continuous
 62
           7
100
AcDbVertex
100
AcDb2dVertex
 10
14.220796875
 20
-8.272270833333
 30
0.0
 70
           8
  0
VERTEX
  5
191
100
AcDbEntity
  8
0
  6
Continuous
 62
           7
100
AcDbVertex
100
AcDb2dVertex
 10
14.177
 20
-8.314
 30
0.0
 70
           8
  0
VERTEX
  5
192
100
AcDbEntity
  8
0
  6
Continuous
 62
           7
100
AcDbVertex
100
AcDb2dVertex
 10
14.134328125
 20
-8.354229166667
 30
0.0
 70
           8
  0
VERTEX
  5
193
100
AcDbEntity
  8
0
  6
Continuous
 62
           7
100
AcDbVertex
100
AcDb2dVertex
 10
14.092875
 20
-8.392833333333
 30
0.0
 70
           8
  0
VERTEX
  5
194
100
AcDbEntity
  8
0
  6
Continuous
 62
           7
100
AcDbVertex
100
AcDb2dVertex
 10
14.052734375
 20
-8.4296875
 30
0.0
 70
           8
  0
VERTEX
  5
195
100
AcDbEntity
  8
0
  6
Continuous
 62
           7
100
AcDbVertex
100
AcDb2dVertex
 10
14.014
 20
-8.464666666667
 30
0.0
 70
           8
  0
VERTEX
  5
196
100
AcDbEntity
  8
0
  6
Continuous
 62
           7
100
AcDbVertex
100
AcDb2dVertex
 10
13.976765625
 20
-8.497645833333
 30
0.0
 70
           8
  0
VERTEX
  5
197
100
AcDbEntity
  8
0
  6
Continuous
 62
           7
100
AcDbVertex
100
AcDb2dVertex
 10
13.941125
 20
-8.5285
 30
0.0
 70
           8
  0
VERTEX
  5
198
100
AcDbEntity
  8
0
  6
Continuous
 62
           7
100
AcDbVertex
100
AcDb2dVertex
 10
13.875
 20
-8.583333333333
 30
0.0
 70
           8
  0
VERTEX
  5
199
100
AcDbEntity
  8
0
  6
Continuous
 62
           7
100
AcDbVertex
100
AcDb2dVertex
 10
13.844671875
 20
-8.607104166667
 30
0.0
 70
           8
  0
VERTEX
  5
19A
100
AcDbEntity
  8
0
  6
Continuous
 62
           7
100
AcDbVertex
100
AcDb2dVertex
 10
13.816125
 20
-8.6285
 30
0.0
 70
           8
  0
VERTEX
  5
19B
100
AcDbEntity
  8
0
  6
Continuous
 62
           7
100
AcDbVertex
100
AcDb2dVertex
 10
13.789265625
 20
-8.647645833333
 30
0.0
 70
           8
  0
VERTEX
  5
19C
100
AcDbEntity
  8
0
  6
Continuous
 62
           7
100
AcDbVertex
100
AcDb2dVertex
 10
13.764
 20
-8.664666666667
 30
0.0
 70
           8
  0
VERTEX
  5
19D
100
AcDbEntity
  8
0
  6
Continuous
 62
           7
100
AcDbVertex
100
AcDb2dVertex
 10
13.740234375
 20
-8.6796875
 30
0.0
 70
           8
  0
VERTEX
  5
19E
100
AcDbEntity
  8
0
  6
Continuous
 62
           7
100
AcDbVertex
100
AcDb2dVertex
 10
13.717875
 20
-8.692833333333
 30
0.0
 70
           8
  0
VERTEX
  5
19F
100
AcDbEntity
  8
0
  6
Continuous
 62
           7
100
AcDbVertex
100
AcDb2dVertex
 10
13.696828125
 20
-8.704229166667
 30
0.0
 70
           8
  0
VERTEX
  5
1A0
100
AcDbEntity
  8
0
  6
Continuous
 62
           7
100
AcDbVertex
100
AcDb2dVertex
 10
13.677
 20
-8.714
 30
0.0
 70
           8
  0
VERTEX
  5
1A1
100
AcDbEntity
  8
0
  6
Continuous
 62
           7
100
AcDbVertex
100
AcDb2dVertex
 10
13.658296875
 20
-8.722270833333
 30
0.0
 70
           8
  0
VERTEX
  5
1A2
100
AcDbEntity
  8
0
  6
Continuous
 62
           7
100
AcDbVertex
100
AcDb2dVertex
 10
13.640625
 20
-8.729166666667
 30
0.0
 70
           8
  0
VERTEX
  5
1A3
100
AcDbEntity
  8
0
  6
Continuous
 62
           7
100
AcDbVertex
100
AcDb2dVertex
 10
13.623890625
 20
-8.7348125
 30
0.0
 70
           8
  0
VERTEX
  5
1A4
100
AcDbEntity
  8
0
  6
Continuous
 62
           7
100
AcDbVertex
100
AcDb2dVertex
 10
13.608
 20
-8.739333333333
 30
0.0
 70
           8
  0
VERTEX
  5
1A5
100
AcDbEntity
  8
0
  6
Continuous
 62
           7
100
AcDbVertex
100
AcDb2dVertex
 10
13.592859375
 20
-8.742854166667
 30
0.0
 70
           8
  0
VERTEX
  5
1A6
100
AcDbEntity
  8
0
  6
Continuous
 62
           7
100
AcDbVertex
100
AcDb2dVertex
 10
13.578375
 20
-8.7455
 30
0.0
 70
           8
  0
VERTEX
  5
1A7
100
AcDbEntity
  8
0
  6
Continuous
 62
           7
100
AcDbVertex
100
AcDb2dVertex
 10
13.564453125
 20
-8.747395833333
 30
0.0
 70
           8
  0
VERTEX
  5
1A8
100
AcDbEntity
  8
0
  6
Continuous
 62
           7
100
AcDbVertex
100
AcDb2dVertex
 10
13.551
 20
-8.748666666667
 30
0.0
 70
           8
  0
VERTEX
  5
1A9
100
AcDbEntity
  8
0
  6
Continuous
 62
           7
100
AcDbVertex
100
AcDb2dVertex
 10
13.537921875
 20
-8.7494375
 30
0.0
 70
           8
  0
VERTEX
  5
1AA
100
AcDbEntity
  8
0
  6
Continuous
 62
           7
100
AcDbVertex
100
AcDb2dVertex
 10
13.525125
 20
-8.749833333333
 30
0.0
 70
           8
  0
VERTEX
  5
1AB
100
AcDbEntity
  8
0
  6
Continuous
 62
           7
100
AcDbVertex
100
AcDb2dVertex
 10
13.5
 20
-8.75
 30
0.0
 70
           8
  0
SEQEND
  5
1AC
100
AcDbEntity
  8
0
  6
Continuous
 62
           7
  0
LINE
  5
1AD
100
AcDbEntity
  8
Exterior View
370
           0
  6
Continuous
 62
           7
100
AcDbLine
 10
4.25
 20
-8.75
 30
0.0
 11
13.5
 21
-8.75
 31
0.0
1001
TCAD
1000
TCW_CUSTOM_DATA
1002
{
1000
#$AUX@_ToolInfo Properties
1070
           8
1000
Insert^JLine^JSingle@Line Single
1002
}
  0
DIMENSION
  5
1B8
100
AcDbEntity
  8
0
  6
Continuous
 62
           7
100
AcDbDimension
  2
*D0
 10
7.107233047034
 20
-5.705266952966
 30
0.0
 11
13.7436948803
 21
0.326587296526
 31
0.0
 70
           3
 71
           5
 72
           1
 41
1.0
 42
0.0
  1
<%%c5.00>
  3
STANDARD
100
AcDbDiametricDimension
 15
10.642766952966
 25
-2.169733047034
 35
0.0
 40
3.0
1001
TCAD
1000
TCW_CUSTOM_DATA
1002
{
1000
#$AUX@_ToolInfo Properties
1070
           8
1000
Insert^JDimension^JDiameter@Dimension Diameter
1002
}
1001
ACAD
1000
DSTYLE
1002
{
1070
         140
1040
0.375
1002
}
  0
DIMENSION
  5
1C6
100
AcDbEntity
  8
0
  6
Continuous
 62
           7
100
AcDbDimension
  2
*D1
 10
1.5
 20
-7.75
 30
0.0
 11
2.525821208113
 21
-7.875
 31
0.0
 71
           5
 72
           1
 41
1.0
 42
0.0
  1
<1.00>
  3
STANDARD
100
AcDbAlignedDimension
 13
3.0
 23
-6.75
 33
0.0
 14
3.0
 24
-7.75
 34
0.0
 50
90.0
100
AcDbRotatedDimension
1001
TCAD
1000
TCW_CUSTOM_DATA
1002
{
1000
#$AUX@_ToolInfo Properties
1070
           8
1000
Insert^JDimension^JOrthogonal@Dimension Orthogonal
1002
}
1001
ACAD
1000
DSTYLE
1002
{
1070
         140
1040
0.375
1002
}
  0
DIMENSION
  5
1D3
100
AcDbEntity
  8
0
  6
Continuous
 62
           7
100
AcDbDimension
  2
*D2
 10
1.5
 20
-6.75
 30
0.0
 11
1.5
 21
-3.875
 31
0.0
 71
           5
 72
           1
 41
1.0
 42
0.0
  1
<5.75>
  3
STANDARD
100
AcDbAlignedDimension
 13
6.75
 23
-1.0
 33
0.0
 14
3.0
 24
-6.75
 34
0.0
 50
90.0
100
AcDbRotatedDimension
1001
TCAD
1000
TCW_CUSTOM_DATA
1002
{
1000
#$AUX@_ToolInfo Properties
1070
           8
1000
Insert^JDimension^JOrthogonal@Dimension Orthogonal
1002
}
1001
ACAD
1000
DSTYLE
1002
{
1070
         140
1040
0.375
1002
}
  0
DIMENSION
  5
1E0
100
AcDbEntity
  8
0
  6
Continuous
 62
           7
100
AcDbDimension
  2
*D3
 10
11.0
 20
-0.0
 30
0.0
 11
8.875
 21
0.0
 31
0.0
 71
           5
 72
           1
 41
1.0
 42
0.0
  1
<4.25>
  3
STANDARD
100
AcDbAlignedDimension
 13
6.75
 23
-1.0
 33
0.0
 14
11.0
 24
-1.0
 34
0.0
100
AcDbRotatedDimension
1001
TCAD
1000
TCW_CUSTOM_DATA
1002
{
1000
#$AUX@_ToolInfo Properties
1070
           8
1000
Insert^JDimension^JOrthogonal@Dimension Orthogonal
1002
}
1001
ACAD
1000
DSTYLE
1002
{
1070
         140
1040
0.375
1002
}
  0
DIMENSION
  5
1ED
100
AcDbEntity
  8
0
  6
Continuous
 62
           7
100
AcDbDimension
  2
*D4
 10
11.5
 20
1.0
 30
0.0
 11
8.875
 21
1.375
 31
0.0
 71
           5
 72
           1
 41
1.0
 42
0.0
  1
<5.25>
  3
STANDARD
100
AcDbAlignedDimension
 13
6.25
 23
-6.625
 33
0.0
 14
11.5
 24
-6.625
 34
0.0
100
AcDbRotatedDimension
1001
TCAD
1000
TCW_CUSTOM_DATA
1002
{
1000
#$AUX@_ToolInfo Properties
1070
           8
1000
Insert^JDimension^JOrthogonal@Dimension Orthogonal
1002
}
1001
ACAD
1000
DSTYLE
1002
{
1070
         140
1040
0.375
1002
}
  0
DIMENSION
  5
1FA
100
AcDbEntity
  8
0
  6
Continuous
 62
           7
100
AcDbDimension
  2
*D5
 10
-20.0
 20
1.0
 30
0.0
 11
-10.0
 21
1.375
 31
0.0
 71
           5
 72
           1
 41
1.0
 42
0.0
  1
<20.00>
  3
STANDARD
100
AcDbAlignedDimension
 13
-0.0
 23
3.0
 33
0.0
 14
-20.0
 24
3.0
 34
0.0
100
AcDbRotatedDimension
1001
TCAD
1000
TCW_CUSTOM_DATA
1002
{
1000
#$AUX@_ToolInfo Properties
1070
           8
1000
Insert^JDimension^JOrthogonal@Dimension Orthogonal
1002
}
1001
ACAD
1000
DSTYLE
1002
{
1070
         140
1040
0.375
1002
}
  0
DIMENSION
  5
207
100
AcDbEntity
  8
0
  6
Continuous
 62
           7
100
AcDbDimension
  2
*D6
 10
-3.0
 20
1.5
 30
0.0
 11
-4.375
 21
1.875
 31
0.0
 71
           5
 72
           1
 41
1.0
 42
0.0
  1
<2.75>
  3
STANDARD
100
AcDbAlignedDimension
 13
-5.75
 23
6.25
 33
0.0
 14
-3.0
 24
6.25
 34
0.0
 50
180.0
100
AcDbRotatedDimension
1001
TCAD
1000
TCW_CUSTOM_DATA
1002
{
1000
#$AUX@_ToolInfo Properties
1070
           8
1000
Insert^JDimension^JOrthogonal@Dimension Orthogonal
1002
}
1001
ACAD
1000
DSTYLE
1002
{
1070
         140
1040
0.375
1002
}
  0
DIMENSION
  5
215
100
AcDbEntity
  8
0
  6
Continuous
 62
           7
100
AcDbDimension
  2
*D7
 10
-3.0
 20
2.25
 30
0.0
 11
-1.474178791887
 21
2.625
 31
0.0
 71
           5
 72
           1
 41
1.0
 42
0.0
  1
<2.00>
  3
STANDARD
100
AcDbAlignedDimension
 13
-5.0
 23
6.25
 33
0.0
 14
-3.0
 24
6.25
 34
0.0
 50
180.0
100
AcDbRotatedDimension
1001
TCAD
1000
TCW_CUSTOM_DATA
1002
{
1000
#$AUX@_ToolInfo Properties
1070
           8
1000
Insert^JDimension^JOrthogonal@Dimension Orthogonal
1002
}
1001
ACAD
1000
DSTYLE
1002
{
1070
         140
1040
0.375
1002
}
  0
DIMENSION
  5
222
100
AcDbEntity
  8
0
  6
Continuous
 62
           7
100
AcDbDimension
  2
*D8
 10
-0.0
 20
0.25
 30
0.0
 11
-4.0
 21
0.625
 31
0.0
 71
           5
 72
           1
 41
1.0
 42
0.0
  1
<8.00>
  3
STANDARD
100
AcDbAlignedDimension
 13
-8.0
 23
-3.375
 33
0.0
 14
-0.0
 24
-1.0
 34
0.0
100
AcDbRotatedDimension
1001
TCAD
1000
TCW_CUSTOM_DATA
1002
{
1000
#$AUX@_ToolInfo Properties
1070
           8
1000
Insert^JDimension^JOrthogonal@Dimension Orthogonal
1002
}
1001
ACAD
1000
DSTYLE
1002
{
1070
         140
1040
0.375
1002
}
  0
DIMENSION
  5
230
100
AcDbEntity
  8
0
  6
Continuous
 62
           7
100
AcDbDimension
  2
*D9
 10
-3.0
 20
-0.5
 30
0.0
 11
-4.525821208113
 21
-0.125
 31
0.0
 71
           5
 72
           1
 41
1.0
 42
0.0
  1
<1.00>
  3
STANDARD
100
AcDbAlignedDimension
 13
-2.0
 23
-1.0
 33
0.0
 14
-3.0
 24
-1.0
 34
0.0
 50
180.0
100
AcDbRotatedDimension
1001
TCAD
1000
TCW_CUSTOM_DATA
1002
{
1000
#$AUX@_ToolInfo Properties
1070
           8
1000
Insert^JDimension^JOrthogonal@Dimension Orthogonal
1002
}
1001
ACAD
1000
DSTYLE
1002
{
1070
         140
1040
0.375
1002
}
  0
DIMENSION
  5
23E
100
AcDbEntity
  8
0
  6
Continuous
 62
           7
100
AcDbDimension
  2
*D10
 10
0.0
 20
-0.5
 30
0.0
 11
1.525821208113
 21
-0.125
 31
0.0
 71
           5
 72
           1
 41
1.0
 42
0.0
  1
<2.00>
  3
STANDARD
100
AcDbAlignedDimension
 13
-2.0
 23
-1.0
 33
0.0
 14
0.0
 24
-1.0
 34
0.0
 50
180.0
100
AcDbRotatedDimension
1001
TCAD
1000
TCW_CUSTOM_DATA
1002
{
1000
#$AUX@_ToolInfo Properties
1070
           8
1000
Insert^JDimension^JOrthogonal@Dimension Orthogonal
1002
}
1001
ACAD
1000
DSTYLE
1002
{
1070
         140
1040
0.375
1002
}
  0
DIMENSION
  5
24B
100
AcDbEntity
  8
0
  6
Continuous
 62
           7
100
AcDbDimension
  2
*D11
 10
14.75
 20
2.0
 30
0.0
 11
8.875
 21
2.375
 31
0.0
 71
           5
 72
           1
 41
1.0
 42
0.0
  1
<11.75>
  3
STANDARD
100
AcDbAlignedDimension
 13
3.0
 23
-6.75
 33
0.0
 14
14.75
 24
-6.75
 34
0.0
100
AcDbRotatedDimension
1001
TCAD
1000
TCW_CUSTOM_DATA
1002
{
1000
#$AUX@_ToolInfo Properties
1070
           8
1000
Insert^JDimension^JOrthogonal@Dimension Orthogonal
1002
}
1001
ACAD
1000
DSTYLE
1002
{
1070
         140
1040
0.375
1002
}
  0
ENDSEC
  0
SECTION
  2
OBJECTS
  0
DICTIONARY
  5
19
100
AcDbDictionary
280
           0
281
           1
  3
ACAD_GROUP
350
1A
  3
ACAD_MLINESTYLE
350
1B
  3
ACAD_LAYOUT
350
1E
  3
ACAD_PLOTSETTINGS
350
22
  3
ACAD_PLOTSTYLENAME
350
1F
  0
DICTIONARY
  5
1A
102
{ACAD_REACTORS
330
19
102
}
100
AcDbDictionary
280
           0
281
           1
  0
DICTIONARY
  5
1B
102
{ACAD_REACTORS
330
19
102
}
100
AcDbDictionary
280
           0
281
           1
  3
Standard
350
1C
  0
MLINESTYLE
  5
1C
100
AcDbMlineStyle
  2
STANDARD
 70
           0
  3

 62
         256
 51
90.0
 52
90.0
 71
           3
 49
0.25
 62
           7
  6
ByLayer
 49
0.0
 62
           7
  6
ByLayer
 49
-0.25
 62
           7
  6
ByLayer
  0
ACDBDICTIONARYWDFLT
  5
1F
102
{ACAD_REACTORS
330
19
102
}
100
AcDbDictionary
281
           1
  3
Normal
350
1D
100
AcDbDictionaryWithDefault
340
1D
  0
ACDBPLACEHOLDER
  5
1D
102
{ACAD_REACTORS
330
1F
102
}
  0
LAYOUT
  5
21
102
{ACAD_REACTORS
330
1E
102
}
100
AcDbPlotSettings
  1

  2

  4

  6

 40
0.0
 41
0.0
 42
0.0
 43
0.0
 44
0.0
 45
0.0
 46
0.0
 47
0.0
 48
0.0
 49
0.0
140
0.0
141
0.0
142
1.0
143
1.0
 70
           0
 72
           0
 73
           0
 74
           0
  7

 75
           0
147
1.0
148
0.0
149
0.0
100
AcDbLayout
  1
Layout1
 70
           0
 71
           0
 10
0.0
 20
0.0
 11
0.0
 21
0.0
 12
0.0
 22
0.0
 32
0.0
 14
0.0
 24
0.0
 34
0.0
 15
0.0
 25
0.0
 35
0.0
146
0.0
 13
0.0
 23
0.0
 33
0.0
 16
0.0
 26
0.0
 36
0.0
 17
0.0
 27
0.0
 37
0.0
 76
           0
330
B
331
0
345
0
346
0
  0
DICTIONARY
  5
1E
102
{ACAD_REACTORS
330
19
102
}
100
AcDbDictionary
280
           0
281
           1
  3
Model
350
24C
  3
Paper 1
350
24D
  0
DICTIONARY
  5
22
102
{ACAD_REACTORS
330
19
102
}
100
AcDbDictionary
280
           0
281
           1
  0
LAYOUT
  5
24C
100
AcDbPlotSettings
  1

  2

  4

  6

 40
0.0
 41
0.0
 42
0.0
 43
0.0
 44
0.0
 45
0.0
 46
0.0
 47
0.0
 48
0.0
 49
0.0
140
0.0
141
0.0
142
1.0
143
1.0
 70
           0
 72
           0
 73
           0
 74
           0
  7

 75
           0
147
1.0
148
0.0
149
0.0
100
AcDbLayout
  1
Model
 70
           0
 71
           0
 10
0.0
 20
0.0
 11
0.0
 21
0.0
 12
0.0
 22
0.0
 32
0.0
 14
0.0
 24
0.0
 34
0.0
 15
0.0
 25
0.0
 35
0.0
146
0.0
 13
0.0
 23
0.0
 33
0.0
 16
0.0
 26
0.0
 36
0.0
 17
0.0
 27
0.0
 37
0.0
 76
           0
330
A
331
0
345
0
346
0
  0
LAYOUT
  5
24D
100
AcDbPlotSettings
  1

  2
none_device
  4

  6

 40
1.69418
 41
6.35
 42
12.7
 43
6.35
 44
279.4
 45
215.9
 46
-1.69418
 47
-6.35
 48
0.0
 49
0.0
140
0.0
141
0.0
142
1.0
143
1.0
 70
           0
 72
           0
 73
           0
 74
           0
  7

 75
           0
147
1.0
148
0.0
149
0.0
100
AcDbLayout
  1
Paper 1
 70
           1
 71
           1
 10
0.0
 20
0.0
 11
279.4
 21
215.9
 12
0.0
 22
0.0
 32
0.0
 14
0.0
 24
0.0
 34
0.0
 15
0.0
 25
0.0
 35
0.0
146
0.0
 13
0.0
 23
0.0
 33
0.0
 16
0.0
 26
0.0
 36
0.0
 17
0.0
 27
0.0
 37
0.0
 76
           0
330
B
331
0
345
0
346
0
  0
ENDSEC
  0
EOF
